ML
     
  Уважаемый Гость!
Вы можете поддержать проект и зарегистрироваться у наших партнеров - онлайн-стратегия MyLands. При регистрации в игре Вы получите код, который сможете активировать после регистрации на pirat.ca и получить 1000 дублонов.

Ваш код:
822959f93c00d34653763d5bbf9ee9a7134af98a
 
     

Странная магия / Strange Magic (Гари Ридстром / Gary Rydstrom) [2015 г., мультфильм, мюзикл, фэнтези, семейный, WEB-DLRip] Dub [iTunes]

Ответить на тему
 
Автор
Сообщение

Пост 19-Май-2015 06:20

[Q] 

aleksey99

--Странная магия / Strange Magic--«For ages two worlds lived divided: the magical and the mysterious. Until someone crossed the line...»-- -Производство: США, Lucasfilm Animation, Industrial Light & Magic
Год выпуска: 2015 г.
Жанр: мультфильм, мюзикл, фэнтези, семейный
Продолжительность: 01:39:38--Мировая премьера: 23 января 2015--Перевод: Профессиональный (полное дублирование) [iTunes]--Режиссер: Гари Ридстром / Gary Rydstrom--В ролях: Алан Камминг, Эван Рэйчел Вуд, Элайджа Келли, Мередит Энн Булл, Сэм Палладио, Кристин Ченоуэт, Майя Рудольф, Петер Стормаре, Бренда Чепмен--Описание: Музыкальная сказка о гоблинах, эльфах, феях и бесах, рассказанная под мелодии популярных песен последних шести десятилетий.-- --Качество видео: WEB-DLRip
Контейнер: AVI
Видео кодек: XviD
Аудио кодек: AC3
Видео: 720x304 (2.37:1), 23.976 fps, XviD build 50 ~1570 kbps avg, 0.30 bit/pixel
Аудио: 48 kHz, AC3 Dolby Digital, 3/2 (L,C,R,l,r) + LFE ch, ~384 kbps
Cубтитры: Песни переведены русскими субтитрами.
Общее
Полное имя : E:\T2\Strannaya.Mag1ya.2015.D.WEB-DLRip.1400MB.avi
Формат : AVI
Формат/Информация : Audio Video Interleave
Размер файла : 1,37 Гбайт
Продолжительность : 1 ч. 39 м.
Общий поток : 1963 Кбит/сек
Программа кодирования : VirtualDubMod 1.5.10.2 (build 2540/release)
Библиотека кодирования : VirtualDubMod build 2540/release
Видео
Идентификатор : 0
Формат : MPEG-4 Visual
Профиль формата : Advanced [email protected]
Параметр BVOP формата : 2
Параметр QPel формата : Нет
Параметр GMC формата : Без точки перехода
Параметр матрицы формата : Default (MPEG)
Идентификатор кодека : XVID
Идентификатор кодека/Подсказка : XviD
Продолжительность : 1 ч. 39 м.
Битрейт : 1571 Кбит/сек
Ширина : 720 пикселей
Высота : 304 пикселя
Соотношение сторон : 2,35:1
Частота кадров : 23,976 кадра/сек
Цветовое пространство : YUV
Субдискретизация насыщенности : 4:2:0
Битовая глубина : 8 бит
Тип развёртки : Прогрессивная
Метод сжатия : С потерями
Бит/(Пиксели*Кадры) : 0.299
Размер потока : 1,09 Гбайт (80%)
Библиотека кодирования : XviD 1.2.1 (UTC 2008-12-04)
Аудио
Идентификатор : 1
Формат : AC-3
Формат/Информация : Audio Coding 3
Расширение режима : CM (complete main)
Параметр Endianness формата : Big
Идентификатор кодека : 2000
Продолжительность : 1 ч. 39 м.
Вид битрейта : Постоянный
Битрейт : 384 Кбит/сек
Каналы : 6 каналов
Расположение каналов : Front: L C R, Side: L R, LFE
Частота : 48,0 КГц
Битовая глубина : 16 бит
Метод сжатия : С потерями
Размер потока : 273 Мбайт (20%)
Выравнивание : Разделение по промежуткам
Продолжительность промежутка : 42 мс. (1,00 видеокадр)
Время предзагрузки промежутка : 500 мс.
Трейлер
Download / Скачать

Хотите скачать бесплатно? Зарегистрируйтесь на сайте (ссылка на регистрацию). Pirat.ca - самый быстрый торрент трекер в рунете!

Как скачивать  ·   Что такое торрент  ·   Рейтинг и ограничения

sergey718

Корсар

Пост 19-Май-2015 07:26 (спустя 1 час 5 минут)

[Q] 

Качаю,ребёнок будет доволен.
[Профиль]  [ЛС] 

Maverick_RUS

Морской Волк

Пост 19-Май-2015 07:30 (спустя 4 минуты)

[Q] 

Такая же, думаю понравится
[Профиль]  [ЛС] 

RavDen

Лоцман

Пост 19-Май-2015 09:46 (спустя 2 часа 15 минут)

[Q] 

Качаем! Приколы а ля Шрек! Спасибо!!!
[Профиль]  [ЛС] 

Alex Yz

Гроза морей

Пост 19-Май-2015 09:54 (спустя 8 минут)

[Q] 

Спасибо!!! Вы лучшие!
[Профиль]  [ЛС] 

Maks_e

Корсар

69

Пост 19-Май-2015 10:31 (спустя 37 минут)

[Q] 

Спасибо!!! Лови бочку
[Профиль]  [ЛС] 

uzi

Морской Волк

Пост 19-Май-2015 11:06 (спустя 34 минуты)

[Q] 

спасибо Лови бочку
[Профиль]  [ЛС] 

shayhi79

Морской Волк

Пост 19-Май-2015 14:16 (спустя 3 часа)

[Q] 

Спасибо!!! Супер!
[Профиль]  [ЛС] 

Alexlogin

Гроза морей

105

Пост 19-Май-2015 19:40 (спустя 5 часов)

[Q] 

Спасибо за раздачу
[Профиль]  [ЛС] 

Ganjik

Пост 19-Май-2015 20:08 (спустя 28 минут)

[Q] 

песни на инглише и субтитры детям не помогут, а посему вопрос: кто в курсе, будут ли песни озвучены или так и оставят?
[Профиль]  [ЛС] 

salavat1234

Гроза морей

Пост 20-Май-2015 06:43 (спустя 10 часов)

[Q] 

Спасибо!!! Автору респект!!!
[Профиль]  [ЛС] 

kudrjavy

Флибустьер

Пост 24-Май-2015 03:23 (спустя 3 дня)

[Q] 

Спсиб!!! Лови бочку

_________________
Девушки-как печеньки: ломаются,пока не намокнут...
[Профиль]  [ЛС] 
Показать сообщения:    
Ответить на тему

Текущее время: Сегодня 05:57

Часовой пояс: GMT + 4



Вы не можете начинать темы
Вы не можете отвечать на сообщения
Вы не можете редактировать свои сообщения
Вы не можете удалять свои сообщения
Вы не можете голосовать в опросах
Вы не можете прикреплять файлы к сообщениям
Вы не можете скачивать файлы

▼ Вниз