ML
     
  Уважаемый Гость!
Вы можете поддержать проект и зарегистрироваться у наших партнеров - онлайн-стратегия MyLands. При регистрации в игре Вы получите код, который сможете активировать после регистрации на pirat.ca и получить 1000 дублонов.

Ваш код:
e6008d9811a0b6a1393c3dc51ecd7bc35637bc21
 
     

Ад Данте: Анимированный эпос / Dante's Inferno: An Animated Epic (Виктор Кук / Victor Cook, Майкл Д’Иса-Хоган / Michael D'Isa-Hogan, Сан-Чжин Ким / Sang-Jin Kim) [2010 г., мультфильм, ужасы, фэнтези, боевик, BDRip] VO (Тим Вагнер)

Ответить на тему
 
Автор
Сообщение

Пост 20-Май-2015 22:56

[Q] 

LPPI

-Ад Данте: Анимированный эпос / Dante's Inferno: An Animated Epic- Производство: Япония, США, Сингапур, Корея Южная
Год выпуска: 2010 г.
Жанр: мультфильм, ужасы, фэнтези, боевик
Продолжительность: 01:28:08
Мировая премьера: 9 февраля 2010-Перевод: Любительский (одноголосный, закадровый) [Тим Вагнер]-Режиссер: Виктор Кук / Victor Cook, Майкл Д’Иса-Хоган / Michael D'Isa-Hogan, Сан-Чжин Ким / Sang-Jin Kim
В ролях: Марк Хэмилл, Кевин Майкл Ричардсон, Стивен Блум, Грэй ДеЛисл, Грэм МакТавиш, Виктория Теннант, Грег Эллис, Николас Гест, Ника Футтерман, Ванесса Бренч-Описание: Главный герой Данте, проходит через 9 кругов ада, чтобы спасти свою возлюбленную Беатриче.- -Качество видео: BDRip
Контейнер: AVI
Видео кодек: XviD
Аудио кодек: AC3
Видео: 720x400 (1.80:1), 23.976 fps, XviD build 50 ~1902 kbps avg, 0.28 bit/pixel
Аудио: Russian: 48 kHz, AC3 Dolby Digital, 3/2 (L,C,R,l,r) + LFE ch, ~448 kbps
Cубтитры: отсутствуют-
General
Complete name : F:\Ad.Dante.2010.RUS.BDRip.avi
Format : AVI
Format/Info : Audio Video Interleave
File size : 1.45 GiB
Duration : 1h 28mn
Overall bit rate : 2 360 Kbps
Writing application : VirtualDubMod 1.5.10.3 | www.virtualdub-fr.org || (build 2550/release)
Video
ID : 0
Format : MPEG-4 Visual
Format profile : Advanced [email protected]
Format settings, BVOP : 1
Format settings, QPel : No
Format settings, GMC : No warppoints
Format settings, Matrix : Custom
Codec ID : XVID
Codec ID/Hint : XviD
Duration : 1h 28mn
Bit rate : 1 903 Kbps
Width : 720 pixels
Height : 400 pixels
Display aspect ratio : 16:9
Frame rate : 23.976 fps
Color space : YUV
Chroma subsampling : 4:2:0
Bit depth : 8 bits
Scan type : Progressive
Compression mode : Lossy
Bits/(Pixel*Frame) : 0.276
Stream size : 1.17 GiB (81%)
Writing library : XviD 1.2.1 (UTC 2008-12-04)
Audio
ID : 1
Format : AC-3
Format/Info : Audio Coding 3
Mode extension : CM (complete main)
Format settings, Endianness : Big
Codec ID : 2000
Duration : 1h 28mn
Bit rate mode : Constant
Bit rate : 448 Kbps
Channel(s) : 6 channels
Channel positions : Front: L C R, Side: L R, LFE
Sampling rate : 48.0 KHz
Compression mode : Lossy
Stream size : 282 MiB (19%)
Alignment : Split accross interleaves
Interleave, duration : 42 ms (1.00 video frame)
Interleave, preload duratio : 500 ms
-Скриншоты:--
Download / Скачать

Хотите скачать бесплатно? Зарегистрируйтесь на сайте (ссылка на регистрацию). Pirat.ca - самый быстрый торрент трекер в рунете!

Как скачивать  ·   Что такое торрент  ·   Рейтинг и ограничения

Пост 21-Май-2015 03:10 (спустя 4 часа)

Топик был перенесен из форума Мультфильмы (Трюм) в форум Зарубежные полнометражные мультфильмы
Андря
 

platon18

Гроза морей

Пост 14-Окт-2015 11:24 (спустя 4 месяца 24 дня)

[Q] 

хватило от силы на 15 минут
[Профиль]  [ЛС] 

the_lame

Корсар

Пост 17-Янв-2016 19:52 (спустя 3 месяца 3 дня)

[Q] 

Серьезный мульт
[Профиль]  [ЛС] 
Показать сообщения:    
Ответить на тему

Текущее время: Сегодня 02:04

Часовой пояс: GMT + 4



Вы не можете начинать темы
Вы не можете отвечать на сообщения
Вы не можете редактировать свои сообщения
Вы не можете удалять свои сообщения
Вы не можете голосовать в опросах
Вы не можете прикреплять файлы к сообщениям
Вы не можете скачивать файлы

▼ Вниз