ML
     
  Уважаемый Гость!
Вы можете поддержать проект и зарегистрироваться у наших партнеров - онлайн-стратегия MyLands. При регистрации в игре Вы получите код, который сможете активировать после регистрации на pirat.ca и получить 1000 дублонов.

Ваш код:
73640f24f8a0f579e128ea7346fd2db2b1009143
 
     

Губка Боб в 3D / The SpongeBob Movie: Sponge Out of Water (Пол Тиббит / Paul Tibbitt) [2015 г., мультфильм, комедия, приключения, семейный, BDRip-AVC] Dub (Лицензия) + Original (Eng) + Sub (Rus, Eng) [Jolly Roger]

Ответить на тему
 
Автор
Сообщение

Пост 24-Май-2015 10:58

[Q] 

LPPI

-Губка Боб в 3D / The SpongeBob Movie: Sponge Out of Water- Год выпуска: 2015 г.
Производство: США, Nickelodeon Movies, Paramount Animation, United Plankton Pictures
Жанр: мультфильм, комедия, приключения, семейный
Продолжительность: 01:32:34
Перевод: Профессиональный (полное дублирование) [Лицензия]
Оригинальный аудиопоток: английский
Режиссер: Пол Тиббит / Paul Tibbitt
В ролях: Антонио Бандерас, Том Кенни, Эрик Бауза, Тим Конуэй, Эдди Дизен, Роб Полсен, Кевин Майкл Ричардсон, Эйприл Стюарт, Кри Саммер, Билли Уэст, Карлос Аласраки, Нолан Норт, Пол Тиббит, Билл Фагербакки, Роджер Бампасс, Мистер Лоуренс, Джилл Тэлли, Ди Брэдли Бэйкер, Клэнси Браун, Кэролин Лоуренс
Описание: Всемирный любимчик со дна океана Губка Боб Квадратные Штаны должен спасти свой глубоководный мир, но для этого ему и его друзьям придется выбраться на сушу и оказаться в нашем. Качество видео: BDRip-AVC
Контейнер: MKV
Видео кодек: H.264
Аудио кодек: AC3
Видео: MPEG4 Video (H264) 1024x576 23.976fps 2327 Kbps
Аудио: Dolby AC3 48000Hz 6ch 448 Kbps / Русский
Аудио 2: Dolby AC3 48000Hz 6ch 448 Kbps / Английский
Субтитры: Русские, английские (отключаемые)
avs [info]: 1024x576p 1:1 @ 2500000/104271 fps (cfr)
x264 [info]: using SAR=1/1
x264 [info]: using cpu capabilities: MMX2 SSE2Fast SSSE3 SSE4.2 AVX
x264 [info]: profile High, level 3.1
x264 [info]: frame I:1394 Avg QP:14.47 size:127940
x264 [info]: frame P:37318 Avg QP:18.12 size: 22608
x264 [info]: frame B:94462 Avg QP:18.93 size: 6277
x264 [info]: consecutive B-frames: 5.3% 6.3% 19.7% 27.2% 18.1% 15.4% 3.8% 4.2%
x264 [info]: mb I I16..4: 20.3% 43.9% 35.8%
x264 [info]: mb P I16..4: 2.0% 9.1% 2.3% P16..4: 38.1% 11.6% 9.4% 0.0% 0.0% skip:27.5%
x264 [info]: mb B I16..4: 0.1% 0.8% 0.3% B16..8: 27.3% 6.4% 2.5% direct: 3.6% skip:59.0% L0:42.7% L1:45.3% BI:12.0%
x264 [info]: 8x8 transform intra:63.4% inter:46.4%
x264 [info]: direct mvs spatial:95.4% temporal:4.6%
x264 [info]: coded y,uvDC,uvAC intra: 85.7% 87.1% 72.6% inter: 14.5% 15.0% 9.9%
x264 [info]: i16 v,h,dc,p: 23% 12% 32% 33%
x264 [info]: i8 v,h,dc,ddl,ddr,vr,hd,vl,hu: 9% 14% 12% 8% 11% 10% 13% 10% 15%
x264 [info]: i4 v,h,dc,ddl,ddr,vr,hd,vl,hu: 10% 12% 6% 9% 13% 11% 13% 10% 14%
x264 [info]: i8c dc,h,v,p: 46% 24% 14% 15%
x264 [info]: Weighted P-Frames: Y:4.6% UV:2.9%
x264 [info]: ref P L0: 53.2% 5.2% 17.6% 7.5% 5.8% 4.9% 4.7% 1.1% 0.0%
x264 [info]: ref B L0: 64.9% 15.9% 8.7% 6.3% 2.8% 1.4%
x264 [info]: ref B L1: 89.8% 10.2%
x264 [info]: kb/s:2326.04
encoded 133174 frames, 18.06 fps, 2326.04 kb/s

General
Unique ID : 189174908453681620214835081299954239126 (0x8E51C318722B4BC887EE9DC87C700696)
Complete name : F:\Мои рипы\The.SpongeBob.Movie.2015.H.264.BDRip-AVC.JRG.mkv
Format : Matroska
Format version : Version 4 / Version 2
File size : 2.09 GiB
Duration : 1h 32mn
Overall bit rate : 3 224 Kbps
Movie name : The Jolly Roger Release Group by Pirat.CA
Encoded date : UTC 2015-06-07 12:22:38
Writing application : mkvmerge v7.8.0 ('River Man') 32bit built on Mar 27 2015 16:18:02
Writing library : libebml v1.3.1 + libmatroska v1.4.2
_STATISTICS_WRITING_APP : mkvmerge v7.8.0 ('River Man') 32bit built on Mar 27 2015 16:18:02
_STATISTICS_WRITING_DATE_UT : 2015-06-07 12:22:38
_STATISTICS_TAGS : BPS DURATION NUMBER_OF_FRAMES NUMBER_OF_BYTES
DURATION : 01:32:34.464000000
NUMBER_OF_FRAMES : 173577
NUMBER_OF_BYTES : 311049984
Video
ID : 1
Format : AVC
Format/Info : Advanced Video Codec
Format profile : [email protected]
Format settings, CABAC : Yes
Format settings, ReFrames : 7 frames
Codec ID : V_MPEG4/ISO/AVC
Duration : 1h 32mn
Bit rate : 2 327 Kbps
Width : 1 024 pixels
Height : 576 pixels
Display aspect ratio : 16:9
Frame rate mode : Constant
Frame rate : 23.976 fps
Color space : YUV
Chroma subsampling : 4:2:0
Bit depth : 8 bits
Scan type : Progressive
Bits/(Pixel*Frame) : 0.165
Stream size : 1.46 GiB (70%)
Title : Губка Боб в 3D / The SpongeBob Movie
Writing library : x264 core 130 r2273 b3065e6
Encoding settings : cabac=1 / ref=7 / deblock=1:-3:-3 / analyse=0x3:0x113 / me=umh / subme=10 / psy=1 / psy_rd=1.00:0.15 / mixed_ref=0 / me_range=32 / chroma_me=1 / trellis=2 / 8x8dct=1 / cqm=0 / deadzone=21,11 / fast_pskip=0 / chroma_qp_offset=-3 / threads=12 / lookahead_threads=2 / sliced_threads=0 / nr=0 / decimate=0 / interlaced=0 / bluray_compat=0 / constrained_intra=0 / bframes=7 / b_pyramid=2 / b_adapt=2 / b_bias=0 / direct=3 / weightb=1 / open_gop=0 / weightp=2 / keyint=250 / keyint_min=23 / scenecut=40 / intra_refresh=0 / rc=2pass / mbtree=0 / bitrate=2327 / ratetol=1.0 / qcomp=0.60 / qpmin=0 / qpmax=69 / qpstep=4 / cplxblur=20.0 / qblur=0.5 / ip_ratio=1.40 / pb_ratio=1.30 / aq=1:1.00
Language : English
Default : Yes
Forced : No
_STATISTICS_WRITING_APP : mkvmerge v7.8.0 ('River Man') 32bit built on Mar 27 2015 16:18:02
_STATISTICS_WRITING_DATE_UT : 2015-06-07 12:22:38
_STATISTICS_TAGS : BPS DURATION NUMBER_OF_FRAMES NUMBER_OF_BYTES
DURATION : 01:32:34.475000000
NUMBER_OF_FRAMES : 133174
NUMBER_OF_BYTES : 1614989986
Audio #1
ID : 2
Format : AC-3
Format/Info : Audio Coding 3
Mode extension : CM (complete main)
Format settings, Endianness : Big
Codec ID : A_AC3
Duration : 1h 32mn
Bit rate mode : Constant
Bit rate : 448 Kbps
Channel(s) : 6 channels
Channel positions : Front: L C R, Side: L R, LFE
Sampling rate : 48.0 KHz
Compression mode : Lossy
Stream size : 297 MiB (14%)
Language : Russian
Default : Yes
Forced : No
Audio #2
ID : 3
Format : AC-3
Format/Info : Audio Coding 3
Mode extension : CM (complete main)
Format settings, Endianness : Big
Codec ID : A_AC3
Duration : 1h 32mn
Bit rate mode : Constant
Bit rate : 448 Kbps
Channel(s) : 6 channels
Channel positions : Front: L C R, Side: L R, LFE
Sampling rate : 48.0 KHz
Compression mode : Lossy
Stream size : 297 MiB (14%)
Title : Original
Language : English
Default : No
Forced : No
Text #1
ID : 4
Format : UTF-8
Codec ID : S_TEXT/UTF8
Codec ID/Info : UTF-8 Plain Text
Title : Forced
Language : Russian
Default : Yes
Forced : No
Text #2
ID : 5
Format : UTF-8
Codec ID : S_TEXT/UTF8
Codec ID/Info : UTF-8 Plain Text
Title : Full
Language : Russian
Default : No
Forced : No
Text #3
ID : 6
Format : UTF-8
Codec ID : S_TEXT/UTF8
Codec ID/Info : UTF-8 Plain Text
Title : Full
Language : English
Default : No
Forced : No
Text #4
ID : 7
Format : UTF-8
Codec ID : S_TEXT/UTF8
Codec ID/Info : UTF-8 Plain Text
Title : Full SHD
Language : English
Default : No
Forced : No
Menu
00:00:00.000 : en:Chapter 1
00:03:40.387 : en:Chapter 2
00:06:22.173 : en:Chapter 3
00:12:29.999 : en:Chapter 4
00:18:21.600 : en:Chapter 5
00:22:52.079 : en:Chapter 6
00:30:14.688 : en:Chapter 7
00:35:37.886 : en:Chapter 8
00:39:50.972 : en:Chapter 9
00:43:13.424 : en:Chapter 10
00:50:54.510 : en:Chapter 11
00:55:16.396 : en:Chapter 12
01:00:03.099 : en:Chapter 13
01:04:19.355 : en:Chapter 14
01:10:16.587 : en:Chapter 15
01:16:20.367 : en:Chapter 16
01:20:29.491 : en:Chapter 17
01:23:30.000 : en:Credits

Download / Скачать

Хотите скачать бесплатно? Зарегистрируйтесь на сайте (ссылка на регистрацию). Pirat.ca - самый быстрый торрент трекер в рунете!

Как скачивать  ·   Что такое торрент  ·   Рейтинг и ограничения



Последний раз редактировалось: LPPI (2015-06-07 16:38), всего редактировалось 2 раз(а)

Xanarim

Морской Волк

Пост 25-Май-2015 02:17 (спустя 15 часов)

[Q] 

Зуб даю... Всех люблю, но мне больше не наливать. На работу рано.... ck
[Профиль]  [ЛС] 

spidercola86

3250

Пост 25-Май-2015 15:15 (спустя 12 часов)

[Q] 

Спасибо!!! На любителя
[Профиль]  [ЛС] 

LPPI ®

137535

Пост 07-Июн-2015 16:27 (спустя 13 дней)

[Q] 

Обновлено до звука Лицензия.
[Профиль]  [ЛС] 

golovinks

Лоцман

Пост 08-Июн-2015 17:50 (спустя 1 день 1 час)

[Q] 

10 баллов, супер.
[Профиль]  [ЛС] 

tumparov

Морской Волк

Пост 08-Июн-2015 19:30 (спустя 1 час 39 минут)

[Q] 

Наконец то звук и картинка соединились_)) Детям на дачу отвезу_)) Спасибо!!!
[Профиль]  [ЛС] 

lexaspirit

Пост 28-Дек-2015 11:28 (спустя 6 месяцев 19 дней)

[Q] 

Ожидал чегото более смешного. Но разок посмотреть потянет

_________________
-------------------- ----------------------
[Профиль]  [ЛС] 

lightmaster

Флибустьер

Пост 06-Янв-2016 23:51 (спустя 9 дней)

[Q] 

уже второй сын растет на нем... Автору респект!!! Лови бочку
[Профиль]  [ЛС] 
Показать сообщения:    
Ответить на тему

Текущее время: Сегодня 22:31

Часовой пояс: GMT + 4



Вы не можете начинать темы
Вы не можете отвечать на сообщения
Вы не можете редактировать свои сообщения
Вы не можете удалять свои сообщения
Вы не можете голосовать в опросах
Вы не можете прикреплять файлы к сообщениям
Вы не можете скачивать файлы

▼ Вниз