ML
     
  Уважаемый Гость!
Вы можете поддержать проект и зарегистрироваться у наших партнеров - онлайн-стратегия MyLands. При регистрации в игре Вы получите код, который сможете активировать после регистрации на pirat.ca и получить 1000 дублонов.

Ваш код:
e93cd9e43017f251127f220889864c05934e61c6
 
     

Суперкоманда (Волшебный футбол) / Metegol / Futbolin (Хуан Хосе Кампанелла / Juan José Campanella) [2013 г., мультфильм, приключения, семейный, спорт, HDRip] Dub (iTunes)

Ответить на тему
 
Автор
Сообщение

Пост 28-Май-2015 15:33

[Q] 

LPPI

-Суперкоманда (Волшебный футбол) / Metegol / Futbolin- Производство: Испания, Аргентина
Год выпуска: 2013 г.
Жанр: мультфильм, приключения, семейный, спорт
Продолжительность: 01:46:38
Мировая премьера: 18 июля 2013
Российская премьера: 29 апреля 2015, «Вольга»-Перевод: Профессиональный (полное дублирование) [iTunes]-Режиссер: Хуан Хосе Кампанелла / Juan José Campanella
В ролях: Руперт Гринт, Энтони Хэд, Питер Серафинович, Роб Брайдон, Даррен Бойд, Эндрю Нотт, Хуан Хосе Кампанелла, Ральф Литтл, Стэнли Таунсенд, Дэвид Шнайдер-Описание: Чтобы спасти родной город от сноса и не потерять лица в глазах любимой, Амадео вынужден сразиться со своим заклятым врагом Эйсом на спортивном поле. Но как победить лучшую футбольную команду в мире, если ты умеешь играть только в настольный футбол? Конечно, с большой помощью суперкоманды оживших маленьких игроков! Не пасуй перед трудностями! Забей… и выиграй!- -Качество видео: HDRip
Контейнер: AVI
Видео кодек: XviD
Аудио кодек: AC3
Видео: 720x304 (2.37:1), 23.976 fps, XviD build 50 ~1561 kbps avg, 0.30 bit/pixel
Аудио: Russian: 48 kHz, AC3 Dolby Digital, 3/2 (L,C,R,l,r) + LFE ch, ~384 kbps
Cубтитры: отсутствуют-
General
Complete name : F:\Sypercomanda.2013.D.HDRip.1.46GB.avi
Format : AVI
Format/Info : Audio Video Interleave
File size : 1.46 GiB
Duration : 1h 46mn
Overall bit rate : 1 955 Kbps
Writing application : VirtualDubMod 1.5.10.3 | www.virtualdub-fr.org || (build 2550/release)
Writing library : VirtualDubMod build 2550/release
Video
ID : 0
Format : MPEG-4 Visual
Format profile : Advanced [email protected]
Format settings, BVOP : 2
Format settings, QPel : No
Format settings, GMC : No warppoints
Format settings, Matrix : Default (MPEG)
Codec ID : XVID
Codec ID/Hint : XviD
Duration : 1h 46mn
Bit rate : 1 562 Kbps
Width : 720 pixels
Height : 304 pixels
Display aspect ratio : 2.35:1
Frame rate : 23.976 fps
Color space : YUV
Chroma subsampling : 4:2:0
Bit depth : 8 bits
Scan type : Progressive
Compression mode : Lossy
Bits/(Pixel*Frame) : 0.298
Stream size : 1.16 GiB (80%)
Writing library : XviD 1.2.1 (UTC 2008-12-04)
Audio
ID : 1
Format : AC-3
Format/Info : Audio Coding 3
Mode extension : CM (complete main)
Format settings, Endianness : Big
Codec ID : 2000
Duration : 1h 46mn
Bit rate mode : Constant
Bit rate : 384 Kbps
Channel(s) : 6 channels
Channel positions : Front: L C R, Side: L R, LFE
Sampling rate : 48.0 KHz
Compression mode : Lossy
Stream size : 293 MiB (20%)
Alignment : Split accross interleaves
Interleave, duration : 42 ms (1.00 video frame)
Interleave, preload duratio : 500 ms
-Скриншоты:-- -
Download / Скачать

Хотите скачать бесплатно? Зарегистрируйтесь на сайте (ссылка на регистрацию). Pirat.ca - самый быстрый торрент трекер в рунете!

Как скачивать  ·   Что такое торрент  ·   Рейтинг и ограничения

spidercola86

3249

Пост 28-Май-2015 15:50 (спустя 17 минут)

[Q] 

1080p будет??
[Профиль]  [ЛС] 

LPPI ®

137534

Пост 28-Май-2015 16:11 (спустя 20 минут)

[Q] 

6818671080p будет??
Будет чуть позже.
[Профиль]  [ЛС] 

spidercola86

3249

Пост 28-Май-2015 17:41 (спустя 1 час 30 минут)

[Q] 

Будем ждать.
[Профиль]  [ЛС] 

shayhi79

Морской Волк

Пост 29-Май-2015 01:47 (спустя 8 часов)

[Q] 

Забираю... Спасибо!!!
[Профиль]  [ЛС] 

Showman

Корсар

Пост 31-Май-2015 19:35 (спустя 2 дня 17 часов)

[Q] 

Забавный мульт, спасибо! Спасибо!!! Лови бочку
[Профиль]  [ЛС] 

bolin

Флибустьер

Пост 01-Июн-2015 01:16 (спустя 5 часов)

[Q] 

Спасибище!!! Лови бочку
[Профиль]  [ЛС] 

Jek@

Легенда

Пост 02-Июн-2015 18:18 (спустя 1 день 17 часов)

[Q] 

Спасибо!!! .
[Профиль]  [ЛС] 

vesna_7777

Корсар

Пост 06-Ноя-2015 21:45 (спустя 5 месяцев 4 дня)

[Q] 

спасибо лови ром.
[Профиль]  [ЛС] 
Показать сообщения:    
Ответить на тему

Текущее время: Сегодня 04:26

Часовой пояс: GMT + 4



Вы не можете начинать темы
Вы не можете отвечать на сообщения
Вы не можете редактировать свои сообщения
Вы не можете удалять свои сообщения
Вы не можете голосовать в опросах
Вы не можете прикреплять файлы к сообщениям
Вы не можете скачивать файлы

▼ Вниз