ML
     
  Уважаемый Гость!
Вы можете поддержать проект и зарегистрироваться у наших партнеров - онлайн-стратегия MyLands. При регистрации в игре Вы получите код, который сможете активировать после регистрации на pirat.ca и получить 1000 дублонов.

Ваш код:
fcd618d94adc1456bccbde5047c9cd0930e4ae4d
 
     

Звериный отряд / Cuccioli: Il Paese del Vento (Серджо Манфио / Sergio Manfio) [2014 г., мультфильм, DVDRip] Dub (Чистый звук) + Original (Ita)

Ответить на тему
 
Автор
Сообщение

Пост 29-Май-2015 22:00

[Q] 

LPPI

-Звериный отряд / Cuccioli: Il Paese del Vento- Производство: Италия / Gruppo Alcuni
Год выпуска: 2014 г.
Жанр: мультфильм
Продолжительность: 01:17:43
Мировая премьера: 27 марта 2014
Российская премьера: 29 января 2015, «Ракета Релизинг»-Перевод: Профессиональный (полное дублирование) [Чистый звук]
Оригинальный аудиопоток: итальянский-Режиссер: Серджо Манфио / Sergio Manfio
В ролях: Лаура Ленги, Джероламо Алькьери, Паоло Ломбарди, Эдоардо Невола-Описание: Команда, состоящая из отважных зверушек, живет в Стране Ветров — в мире, где абсолютно все работает только от энергии ветра: автомобили, дирижабли и даже автоматы с мороженым. Ветер здесь дует всегда благодаря необыкновенному Вращающемуся Колесу, расположенному внутри горы. Но, однажды, Злая ведьма похищает Колесо, чтобы осуществить свои коварные планы и вся жизнь в Стране Ветров останавливается. Сможет ли Звериный отряд помешать злой колдунье и спасти жителей Страны Ветров?- -Качество видео: DVDRip
Контейнер: AVI
Видео кодек: XviD
Аудио кодек: AC3
Видео: 720x400 (1.80:1), 50 fps, XviD build 50 ~2058 kbps avg, 0.14 bit/pixel
Аудио: Russian: 48 kHz, AC3 Dolby Digital, 2/0 (L,R) ch, ~224 kbps
Аудио #2: Italian: 48 kHz, AC3 Dolby Digital, 2/0 (L,R) ch, ~224 kbps
Cубтитры: отсутствуют-
General
Complete name : F:\Zverinyj.otryad.2014.D.DVDRip.avi
Format : AVI
Format/Info : Audio Video Interleave
File size : 1.38 GiB
Duration : 1h 17mn
Overall bit rate : 2 536 Kbps
Writing application : VirtualDubMod 1.5.10.2 (build 2540/release)
Writing library : VirtualDubMod build 2540/release
Video
ID : 0
Format : MPEG-4 Visual
Format profile : Advanced [email protected]
Format settings, BVOP : 2
Format settings, QPel : No
Format settings, GMC : No warppoints
Format settings, Matrix : Default (MPEG)
Codec ID : XVID
Codec ID/Hint : XviD
Duration : 1h 17mn
Bit rate : 2 060 Kbps
Width : 720 pixels
Height : 400 pixels
Display aspect ratio : 16:9
Frame rate : 50.000 fps
Color space : YUV
Chroma subsampling : 4:2:0
Bit depth : 8 bits
Scan type : Progressive
Compression mode : Lossy
Bits/(Pixel*Frame) : 0.143
Stream size : 1.12 GiB (81%)
Writing library : XviD 1.2.1 (UTC 2008-12-04)
Audio #1
ID : 1
Format : AC-3
Format/Info : Audio Coding 3
Mode extension : CM (complete main)
Format settings, Endianness : Big
Codec ID : 2000
Duration : 1h 17mn
Bit rate mode : Constant
Bit rate : 224 Kbps
Channel(s) : 2 channels
Channel positions : Front: L R
Sampling rate : 48.0 KHz
Compression mode : Lossy
Stream size : 124 MiB (9%)
Alignment : Split accross interleaves
Interleave, duration : 20 ms (1.00 video frame)
Interleave, preload duratio : 500 ms
Audio #2
ID : 2
Format : AC-3
Format/Info : Audio Coding 3
Mode extension : CM (complete main)
Format settings, Endianness : Big
Codec ID : 2000
Duration : 1h 17mn
Bit rate mode : Constant
Bit rate : 224 Kbps
Channel(s) : 2 channels
Channel positions : Front: L R
Sampling rate : 48.0 KHz
Compression mode : Lossy
Stream size : 125 MiB (9%)
Alignment : Split accross interleaves
Interleave, duration : 20 ms (1.00 video frame)
Interleave, preload duratio : 500 ms
-Скриншоты:-- -
Download / Скачать

Хотите скачать бесплатно? Зарегистрируйтесь на сайте (ссылка на регистрацию). Pirat.ca - самый быстрый торрент трекер в рунете!

Как скачивать  ·   Что такое торрент  ·   Рейтинг и ограничения

spidercola86

3254

Пост 29-Май-2015 22:38 (спустя 37 минут)

[Q] 

FullHD-бы. cx
[Профиль]  [ЛС] 

bolin

Флибустьер

Пост 30-Май-2015 01:59 (спустя 3 часа)

[Q] 

Забираю малышам!! Атор Лови бочку
[Профиль]  [ЛС] 

Alexlogin

Гроза морей

105

Пост 31-Май-2015 18:58 (спустя 1 день 16 часов)

[Q] 

Забираю, спасибо
[Профиль]  [ЛС] 

civic_85

Корсар

Пост 02-Июн-2015 13:11 (спустя 1 день 18 часов)

[Q] 

блин....прочитал Элитный отряд мультик , обрадовался... dk

_________________
[Профиль]  [ЛС] 

golovinks

Лоцман

Пост 08-Июн-2015 19:02 (спустя 6 дней)

[Q] 

Клевый мульт.
[Профиль]  [ЛС] 

platon18

Гроза морей

Пост 08-Июн-2015 20:44 (спустя 1 час 42 минуты)

[Q] 

фигнякакаято, не умеют в европе снимать
[Профиль]  [ЛС] 

bladmc

Лоцман

Пост 09-Июн-2015 18:49 (спустя 22 часа)

[Q] 

удалено модератором
[Профиль]  [ЛС] 
Показать сообщения:    
Ответить на тему

Текущее время: Сегодня 12:47

Часовой пояс: GMT + 4



Вы не можете начинать темы
Вы не можете отвечать на сообщения
Вы не можете редактировать свои сообщения
Вы не можете удалять свои сообщения
Вы не можете голосовать в опросах
Вы не можете прикреплять файлы к сообщениям
Вы не можете скачивать файлы

▼ Вниз