ML
     
  Уважаемый Гость!
Вы можете поддержать проект и зарегистрироваться у наших партнеров - онлайн-стратегия MyLands. При регистрации в игре Вы получите код, который сможете активировать после регистрации на pirat.ca и получить 1000 дублонов.

Ваш код:
0fcd44bd35319f69313aa6e53b31c51cbff1c942
 
     

Пингвиненок Пороро: Большие гонки / Pororo, the Racing Adventure (Юн Кун Пак / Young Kyun Park) [2013 г., мультфильм, HDRip] Dub (iTunes) + Original (Eng)

Ответить на тему
 
Автор
Сообщение

Пост 31-Май-2015 19:30

[Q] 

LPPI

-Пингвиненок Пороро: Большие гонки / Pororo, the Racing Adventure- Производство: Корея Южная, Китай
Год выпуска: 2013 г.
Жанр: мультфильм
Продолжительность: 01:16:56
Мировая премьера: 23 января 2013
Российская премьера: 14 мая 2015, «Ракета Релизинг»-Перевод: Профессиональный (полное дублирование) [iTunes]
Оригинальный аудиопоток: английский-Режиссер: Юн Кун Пак / Young Kyun Park
В ролях: Крис Джай Алекс, Энтони Андерсон, Дрэйк Белл, Ву Ди, Су Юнг Хэм, Джон Хидер, Чжань Цзя, Хван Чин Ким, Ми Джа Ли, Сунь Ли-Описание: В глухой деревушке живет пингвиненок Пороро, мечтающий вырасти и стать настоящим гонщиком. Однажды в их краях совершает вынужденную посадку грузовой самолет с черепахами, перевозящими сани для зимних гонок. Ошибочно решив, что черепахи и есть те самые гонщики, пингвиненок уговаривает их дать ему несколько уроков гоночного мастерства, а затем отправляется на соревнование. Но прибыв на место, он понимает, что выиграть будет не так просто, ведь в соперниках у него многократный чемпион по гонкам Белый Тигр и нечистые на лапу медведи, вечно чинящие разные козни соперникам.- -Качество видео: HDRip
Контейнер: AVI
Видео кодек: XviD
Аудио кодек: AC3
Видео: 720x384 (1.88:1), 23.976 fps, XviD MPEG-4 ~1896 kbps avg, 0.29 bit/pixel
Аудио: Russian: 48 kHz, AC3 Dolby Digital, 3/2 (L,C,R,l,r) + LFE ch, ~384 kbps
Аудио #2: English: 48 kHz, AC3 Dolby Digital, 3/2 (L,C,R,l,r) + LFE ch, ~384 kbps
Cубтитры: отсутствуют-
General
Complete name : F:\5ingvinenok.5ororo.2015.Dt.HDRip.avi
Format : AVI
Format/Info : Audio Video Interleave
File size : 1.44 GiB
Duration : 1h 16mn
Overall bit rate : 2 679 Kbps
Writing application : VirtualDubMod 1.5.10.3 | www.virtualdub-fr.org || (build 2550/release)
Video
ID : 0
Format : MPEG-4 Visual
Format profile : Advanced [email protected]
Format settings, BVOP : 2
Format settings, QPel : No
Format settings, GMC : No warppoints
Format settings, Matrix : Default (MPEG)
Muxing mode : Packed bitstream
Codec ID : XVID
Codec ID/Hint : XviD
Duration : 1h 16mn
Bit rate : 1 897 Kbps
Width : 720 pixels
Height : 384 pixels
Display aspect ratio : 1.85:1
Frame rate : 23.976 fps
Color space : YUV
Chroma subsampling : 4:2:0
Bit depth : 8 bits
Scan type : Progressive
Compression mode : Lossy
Bits/(Pixel*Frame) : 0.286
Stream size : 1.02 GiB (71%)
Writing library : XviD 73
Audio #1
ID : 1
Format : AC-3
Format/Info : Audio Coding 3
Mode extension : CM (complete main)
Format settings, Endianness : Big
Codec ID : 2000
Duration : 1h 16mn
Bit rate mode : Constant
Bit rate : 384 Kbps
Channel(s) : 6 channels
Channel positions : Front: L C R, Side: L R, LFE
Sampling rate : 48.0 KHz
Compression mode : Lossy
Stream size : 211 MiB (14%)
Alignment : Split accross interleaves
Interleave, duration : 42 ms (1.00 video frame)
Interleave, preload duratio : 500 ms
Audio #2
ID : 2
Format : AC-3
Format/Info : Audio Coding 3
Mode extension : CM (complete main)
Format settings, Endianness : Big
Codec ID : 2000
Duration : 1h 16mn
Bit rate mode : Constant
Bit rate : 384 Kbps
Channel(s) : 6 channels
Channel positions : Front: L C R, Side: L R, LFE
Sampling rate : 48.0 KHz
Compression mode : Lossy
Stream size : 211 MiB (14%)
Alignment : Split accross interleaves
Interleave, duration : 42 ms (1.00 video frame)
Interleave, preload duratio : 500 ms
-Скриншоты:-- -
Download / Скачать

Хотите скачать бесплатно? Зарегистрируйтесь на сайте (ссылка на регистрацию). Pirat.ca - самый быстрый торрент трекер в рунете!

Как скачивать  ·   Что такое торрент  ·   Рейтинг и ограничения



Последний раз редактировалось: LPPI (2015-06-12 15:27), всего редактировалось 1 раз

bolin

Флибустьер

Пост 31-Май-2015 22:12 (спустя 2 часа 41 минута)

[Q] 

Забираю малышам! Спасибо за раздачу!
[Профиль]  [ЛС] 

Дядя Витя

53908

Пост 31-Май-2015 22:23 (спустя 11 минут)

[Q] 

LPPI, список раздающих Пороро ширится ) az

_________________
?
[Профиль]  [ЛС] 

spidercola86

3251

Пост 31-Май-2015 23:16 (спустя 53 минуты)

[Q] 

Спасибо!!!
[Профиль]  [ЛС] 

BlackaRoza

Юнга

Пост 01-Июн-2015 15:22 (спустя 16 часов)

[Q] 

Забрал своим спиногрызам. Спасибо
[Профиль]  [ЛС] 

LPPI ®

137540

Пост 12-Июн-2015 15:27 (спустя 11 дней)

[Q] 

Звук заменён на iTunes.
[Профиль]  [ЛС] 
Показать сообщения:    
Ответить на тему

Текущее время: Сегодня 02:14

Часовой пояс: GMT + 4



Вы не можете начинать темы
Вы не можете отвечать на сообщения
Вы не можете редактировать свои сообщения
Вы не можете удалять свои сообщения
Вы не можете голосовать в опросах
Вы не можете прикреплять файлы к сообщениям
Вы не можете скачивать файлы

▼ Вниз