ML
     
  Уважаемый Гость!
Вы можете поддержать проект и зарегистрироваться у наших партнеров - онлайн-стратегия MyLands. При регистрации в игре Вы получите код, который сможете активировать после регистрации на pirat.ca и получить 1000 дублонов.

Ваш код:
a6d1ef7ff63e237add5a4c8b21d8aa937c5e9b4b
 
     

Губка Боб в 3D / The SpongeBob Movie: Sponge Out of Water (Пол Тиббит / Paul Tibbitt) [2015 г., мультфильм, комедия, приключения, семейный, BDRip] Dub [Лицензия]

Ответить на тему
 
Автор
Сообщение

Пост 04-Июн-2015 07:34

[Q] 

aleksey99

--Губка Боб в 3D / The SpongeBob Movie: Sponge Out of Water--«Всё квадратное станет явным»-- -Производство: США, Nickelodeon Movies, Paramount Animation, United Plankton Pictures
Год выпуска: 2015 г.
Жанр: мультфильм, комедия, приключения, семейный
Продолжительность: 01:32:37--Мировая премьера: 28 января 2015
Российская премьера: 12 февраля 2015, «Централ Партнершип»
Дата выхода DVD: 9 июня 2015, «Новый Диск»
Дата выхода Blu-Ray: 6 июля 2015, «Новый Диск»--Перевод: Профессиональный (полное дублирование) [Лицензия]--Режиссер: Пол Тиббит / Paul Tibbitt--В ролях: Антонио Бандерас, Том Кенни, Эрик Бауза, Тим Конуэй, Эдди Дизен, Роб Полсен, Кевин Майкл Ричардсон, Эйприл Стюарт, Кри Саммер, Билли Уэст, Карлос Аласраки, Нолан Норт, Пол Тиббит, Билл Фагербакки, Роджер Бампасс, Мистер Лоуренс, Джилл Тэлли, Ди Брэдли Бэйкер, Клэнси Браун, Кэролин Лоуренс--Описание: Всемирный любимчик со дна океана Губка Боб Квадратные Штаны должен спасти свой глубоководный мир, но для этого ему и его друзьям придется выбраться на сушу и оказаться в нашем.-- --Качество видео: BDRip
Контейнер: AVI
Видео кодек: XviD
Аудио кодек: AC3
Видео: 704x400 (1.76:1), 23.976 fps, XviD build 73 ~1800 kbps avg, 0.27 bit/pixel
Аудио: 48 kHz, AC3 Dolby Digital, 3/2 (L,C,R,l,r) + LFE ch, ~448 kbps
Cубтитры: отсутствуют.
Общее
Полное имя : E:\T2\The.SpongeBob.Movie.Sponge.Out.of.Water.2015.BDRip.avi
Формат : AVI
Формат/Информация : Audio Video Interleave
Размер файла : 1,46 Гбайт
Продолжительность : 1 ч. 32 м.
Общий поток : 2257 Кбит/сек
Программа кодирования : VirtualDubMod 1.5.10.3 | www.virtualdub-fr.org || (build 2550/release)
Библиотека кодирования : VirtualDubMod build 2550/release
Видео
Идентификатор : 0
Формат : MPEG-4 Visual
Профиль формата : Advanced [email protected]
Параметр BVOP формата : 1
Параметр QPel формата : Нет
Параметр GMC формата : Без точки перехода
Параметр матрицы формата : Выборочная
Идентификатор кодека : XVID
Идентификатор кодека/Подсказка : XviD
Продолжительность : 1 ч. 32 м.
Битрейт : 1800 Кбит/сек
Ширина : 704 пикселя
Высота : 400 пикселей
Соотношение сторон : 16:9
Частота кадров : 23,976 кадра/сек
Цветовое пространство : YUV
Субдискретизация насыщенности : 4:2:0
Битовая глубина : 8 бит
Тип развёртки : Прогрессивная
Метод сжатия : С потерями
Бит/(Пиксели*Кадры) : 0.267
Размер потока : 1,16 Гбайт (80%)
Библиотека кодирования : XviD 73
Аудио
Идентификатор : 1
Формат : AC-3
Формат/Информация : Audio Coding 3
Расширение режима : CM (complete main)
Параметр Endianness формата : Big
Идентификатор кодека : 2000
Продолжительность : 1 ч. 32 м.
Вид битрейта : Постоянный
Битрейт : 448 Кбит/сек
Каналы : 6 каналов
Расположение каналов : Front: L C R, Side: L R, LFE
Частота : 48,0 КГц
Битовая глубина : 16 бит
Метод сжатия : С потерями
Размер потока : 297 Мбайт (20%)
Выравнивание : Разделение по промежуткам
Продолжительность промежутка : 42 мс. (1,00 видеокадр)
Время предзагрузки промежутка : 500 мс.
Трейлер
Download / Скачать

Хотите скачать бесплатно? Зарегистрируйтесь на сайте (ссылка на регистрацию). Pirat.ca - самый быстрый торрент трекер в рунете!

Как скачивать  ·   Что такое торрент  ·   Рейтинг и ограничения

spidercola86

3249

Пост 04-Июн-2015 10:44 (спустя 3 часа)

[Q] 

Когда будет Full HD?? :fl:
[Профиль]  [ЛС] 

Jek@

Легенда

Пост 06-Июн-2015 09:08 (спустя 1 день 22 часа)

[Q] 

Спасибо!!! .
[Профиль]  [ЛС] 

Ливень

Корсар

Пост 24-Авг-2015 22:43 (спустя 2 месяца 18 дней)

[Q] 

Блииииин, я же знал что шлак, я был уверен что это ШЛАК, ну зачем я ЭТО скачал ?????? Зачем я это смотреть начал ???? Бооожее, КАКОЕ ГОВНО !!!!!!!!!!!! Никакими отмазками ЭТО не закрыть !!!!! Стыдно..... Ой как стыдно-то...
[Профиль]  [ЛС] 
Показать сообщения:    
Ответить на тему

Текущее время: Сегодня 13:31

Часовой пояс: GMT + 4



Вы не можете начинать темы
Вы не можете отвечать на сообщения
Вы не можете редактировать свои сообщения
Вы не можете удалять свои сообщения
Вы не можете голосовать в опросах
Вы не можете прикреплять файлы к сообщениям
Вы не можете скачивать файлы

▼ Вниз