ML
     
  Уважаемый Гость!
Вы можете поддержать проект и зарегистрироваться у наших партнеров - онлайн-стратегия MyLands. При регистрации в игре Вы получите код, который сможете активировать после регистрации на pirat.ca и получить 1000 дублонов.

Ваш код:
c89b4b6523eaac3173e9a9c062ac1a19db575961
 
     

Пчёлка Майя / Maya The Bee – Movie (Алекс Стадерманн / Alexs Stadermann) [2014 г., мультфильм, фэнтези, приключения, BDRip-AVC] Dub [лицензия] + Original (Eng) [Jolly Roger]

Ответить на тему
 
Автор
Сообщение

Пост 10-Июн-2015 08:11

[Q] 

erchine

-Пчёлка Майя / Maya The Bee – Movie- Год выпуска: 2014 г.
Производство: Австралия, Германия
Жанр: мультфильм, фэнтези, приключения
Продолжительность: 01:27:46
Перевод: Профессиональный (полное дублирование) [лицензия]
Оригинальный аудиопоток: английский
Режиссер: Алекс Стадерманн / Alexs Stadermann
В ролях: Коко Джек Гиллис, Нина Шаттон, Коди Смит-МакФи, Джеки Уивер, Ноа Тейлор, Ричард Роксбург, Мириам Маргулис, Энди МакФи, Джастин Кларк, Косма Шива Хаген
Описание: Легендарная пчелка доросла до большого экрана. Мультфильм создан по мотивам повести Вальдемара Бонсельса «Приключения пчёлки Майи» (Die Biene Maja und ihre Abenteuer, 1912). Качество видео: BDRip-AVC
Контейнер: MKV
Видео кодек: H.264
Аудио кодек: AC3
Видео: MPEG4 Video (H264) 960x520 23.976fps 1715 Kbps
Аудио 1: Dolby AC3 48000Hz 6ch 448kbps / Русский
Аудио 2: Dolby AC3 48000Hz 2ch 192kbps / Английский
x264 [info]: using SAR=1/1
x264 [info]: using cpu capabilities: MMX2 SSE2Fast SSSE3 Cache64 SlowShuffle
x264 [info]: profile High, level 4.1
x264 [info]: frame I:1480 Avg QP:13.01 size: 64967
x264 [info]: frame P:33155 Avg QP:16.35 size: 17837
x264 [info]: frame B:91642 Avg QP:19.57 size: 4818
x264 [info]: consecutive B-frames: 5.2% 4.9% 14.5% 24.4% 13.0% 34.1% 2.5% 1.4%
x264 [info]: mb I I16..4: 8.2% 60.8% 31.0%
x264 [info]: mb P I16..4: 4.3% 17.6% 0.0% P16..4: 37.2% 21.6% 10.6% 0.0% 0.0% skip: 8.7%
x264 [info]: mb B I16..4: 0.6% 1.9% 0.0% B16..8: 33.0% 9.5% 2.5% direct: 3.3% skip:49.1% L0:43.3% L1:45.3% BI:11.4%
x264 [info]: 8x8 transform intra:76.9% inter:59.2%
x264 [info]: direct mvs spatial:90.8% temporal:9.2%
x264 [info]: coded y,uvDC,uvAC intra: 62.5% 86.8% 60.3% inter: 13.0% 22.1% 5.9%
x264 [info]: i16 v,h,dc,p: 21% 22% 6% 51%
x264 [info]: i8 v,h,dc,ddl,ddr,vr,hd,vl,hu: 16% 14% 13% 7% 9% 11% 10% 10% 10%
x264 [info]: i4 v,h,dc,ddl,ddr,vr,hd,vl,hu: 19% 13% 6% 8% 12% 12% 10% 10% 10%
x264 [info]: i8c dc,h,v,p: 37% 24% 19% 19%
x264 [info]: Weighted P-Frames: Y:2.0% UV:1.6%
x264 [info]: ref P L0: 58.0% 9.1% 17.5% 8.0% 6.1% 1.3% 0.0%
x264 [info]: ref B L0: 81.1% 13.0% 4.6% 1.2%
x264 [info]: ref B L1: 92.7% 7.3%
x264 [info]: kb/s:1715.04
x264 [total]: encoded 126277 frames, 3.54 fps, 1715.04 kb/s
General
Unique ID : 205207608665268062727778507751364892659 (0x9A618C3EE0F66D0B89846F0252BA17F3)
Complete name : I:\Maya.the.Bee.2014.H.264.BDRip-AVC.JRG.mkv
Format : Matroska
Format version : Version 4 / Version 2
File size : 1.45 GiB
Duration : 1h 27mn
Overall bit rate : 2 357 Kbps
Movie name : The Jolly Roger Release Group by http://Pirat.CA
Encoded date : UTC 2015-06-09 18:57:49
Writing application : mkvmerge v6.9.1 ('Blue Panther') 32bit built on Apr 18 2014 18:15:44
Writing library : libebml v1.3.0 + libmatroska v1.4.1
Video
ID : 1
Format : AVC
Format/Info : Advanced Video Codec
Format profile : [email protected]
Format settings, CABAC : Yes
Format settings, ReFrames : 5 frames
Codec ID : V_MPEG4/ISO/AVC
Duration : 1h 27mn
Bit rate : 1 715 Kbps
Width : 960 pixels
Height : 520 pixels
Display aspect ratio : 1.85:1
Frame rate mode : Constant
Frame rate : 23.976 fps
Color space : YUV
Chroma subsampling : 4:2:0
Bit depth : 8 bits
Scan type : Progressive
Bits/(Pixel*Frame) : 0.143
Stream size : 1.02 GiB (71%)
Writing library : x264 core 130 r2273 b3065e6
Encoding settings : cabac=1 / ref=5 / deblock=1:0:0 / analyse=0x3:0x112 / me=umh / subme=9 / psy=1 / psy_rd=1.00:0.00 / mixed_ref=1 / me_range=24 / chroma_me=1 / trellis=2 / 8x8dct=1 / cqm=0 / deadzone=21,11 / fast_pskip=0 / chroma_qp_offset=-2 / threads=3 / lookahead_threads=1 / sliced_threads=0 / nr=0 / decimate=1 / interlaced=0 / bluray_compat=0 / constrained_intra=0 / bframes=7 / b_pyramid=2 / b_adapt=2 / b_bias=0 / direct=3 / weightb=1 / open_gop=0 / weightp=2 / keyint=250 / keyint_min=23 / scenecut=40 / intra_refresh=0 / rc_lookahead=50 / rc=2pass / mbtree=1 / bitrate=1715 / ratetol=1.0 / qcomp=0.60 / qpmin=0 / qpmax=69 / qpstep=4 / cplxblur=20.0 / qblur=0.5 / ip_ratio=1.40 / aq=1:1.00
Default : Yes
Forced : No
Audio #1
ID : 2
Format : AC-3
Format/Info : Audio Coding 3
Mode extension : CM (complete main)
Format settings, Endianness : Big
Codec ID : A_AC3
Duration : 1h 27mn
Bit rate mode : Constant
Bit rate : 448 Kbps
Channel(s) : 6 channels
Channel positions : Front: L C R, Side: L R, LFE
Sampling rate : 48.0 KHz
Bit depth : 16 bits
Compression mode : Lossy
Stream size : 281 MiB (19%)
Language : Russian
Default : Yes
Forced : No
Audio #2
ID : 3
Format : AC-3
Format/Info : Audio Coding 3
Mode extension : CM (complete main)
Format settings, Endianness : Big
Codec ID : A_AC3
Duration : 1h 27mn
Bit rate mode : Constant
Bit rate : 192 Kbps
Channel(s) : 2 channels
Channel positions : Front: L R
Sampling rate : 48.0 KHz
Bit depth : 16 bits
Compression mode : Lossy
Stream size : 121 MiB (8%)
Language : English
Default : No
Forced : No

Download / Скачать

Хотите скачать бесплатно? Зарегистрируйтесь на сайте (ссылка на регистрацию). Pirat.ca - самый быстрый торрент трекер в рунете!

Как скачивать  ·   Что такое торрент  ·   Рейтинг и ограничения

spidercola86

3254

Пост 10-Июн-2015 09:42 (спустя 1 час 30 минут)

[Q] 

Мульт моего детства (в мое время он был 2Д-анимация)
[Профиль]  [ЛС] 

EDVAR

Легенда

Пост 10-Июн-2015 10:05 (спустя 22 минуты)

[Q] 

Благодарю!C удовольствием мои посмотрят.

_________________
"Как других судить-вы судьи.Как себя-вы адвокаты"
[Профиль]  [ЛС] 

tumparov

Морской Волк

Пост 10-Июн-2015 10:55 (спустя 50 минут)

[Q] 

Спасибо!!! пойду мультом детей отвлеку от разгрома квартиры_))
[Профиль]  [ЛС] 

hevard

Гроза морей

2110

Пост 10-Июн-2015 17:30 (спустя 6 часов)

[Q] 

684801Мульт моего детства (в мое время он был 2Д-анимация)
)))) Ага! Я тоже обратил внимание... "Округлилась" пчёлка Майя!

_________________
-Я старый пират и не знаю слов лицензионного соглашения...
[Профиль]  [ЛС] 

bolin

Флибустьер

Пост 10-Июн-2015 19:48 (спустя 2 часа 18 минут)

[Q] 

Забираю мальчикам! СПАСИБО!
[Профиль]  [ЛС] 
Показать сообщения:    
Ответить на тему

Текущее время: Сегодня 22:31

Часовой пояс: GMT + 4



Вы не можете начинать темы
Вы не можете отвечать на сообщения
Вы не можете редактировать свои сообщения
Вы не можете удалять свои сообщения
Вы не можете голосовать в опросах
Вы не можете прикреплять файлы к сообщениям
Вы не можете скачивать файлы

▼ Вниз