ML
     
  Уважаемый Гость!
Вы можете поддержать проект и зарегистрироваться у наших партнеров - онлайн-стратегия MyLands. При регистрации в игре Вы получите код, который сможете активировать после регистрации на pirat.ca и получить 1000 дублонов.

Ваш код:
a01a592a88af5f9996a6d1baec61b18a1769954d
 
     

Наруто: Последний фильм / The Last: Naruto the Movie (Цунэо Кобаяси / Tsuneo Kobayashi) [2014 г., аниме, мультфильм, боевик, комедия, приключения, WEB-DLRip] Dub (iTunes)

Ответить на тему
 
Автор
Сообщение

Пост 02-Июл-2015 11:12

[Q] 

LPPI

-Наруто: Последний фильм / The Last: Naruto the Movie- Производство: Япония / Aniplex, Dentsu, Pierrot
Год выпуска: 2014 г.
Жанр: аниме, мультфильм, боевик, комедия, приключения
Продолжительность: 01:51:54
Мировая премьера: 6 декабря 2014
Российская премьера: 4 июня 2015, «Централ Партнершип», «All Media»-Перевод: Профессиональный (полное дублирование) [iTunes]-Режиссер: Цунэо Кобаяси / Tsuneo Kobayashi
В ролях: Дзюнко Такэути, Нана Мидзуки, Дзюн Фукуяма, Тиэ Накамура, Сётаро Морикубо, Сатоси Хино, Акира Исида, Хидеаки Тезука, Юрика Хино, Томоми Нисимура-Описание: Маленькая Ханаби похищена инопланетным злодеем, который вдобавок хочет уничтожить Землю. Наруто просто обязан спасти младшую сестру Хинаты — девушки, в которую он влюблён. Но сможет ли легендарный ниндзя победить самого мощного врага, если перед битвой он потеряет свои суперспособности?- -Качество видео: WEB-DLRip
Контейнер: AVI
Видео кодек: XviD
Аудио кодек: AC3
Видео: 720x384 (1.88:1), 24 fps, XviD build 50 ~1474 kbps avg, 0.22 bit/pixel
Аудио: Russian: 48 kHz, AC3 Dolby Digital, 3/2 (L,C,R,l,r) + LFE ch, ~384 kbps
Cубтитры: отсутствуют-
General
Complete name : F:\Naruto.the.Movie.2014.D.WEB-DLRip.1.46GB.avi
Format : AVI
Format/Info : Audio Video Interleave
File size : 1.46 GiB
Duration : 1h 51mn
Overall bit rate : 1 868 Kbps
Writing application : VirtualDubMod 1.5.10.3 | www.virtualdub-fr.org || (build 2550/release)
Writing library : VirtualDubMod build 2550/release
Video
ID : 0
Format : MPEG-4 Visual
Format profile : Advanced [email protected]
Format settings, BVOP : 2
Format settings, QPel : No
Format settings, GMC : No warppoints
Format settings, Matrix : Default (MPEG)
Codec ID : XVID
Codec ID/Hint : XviD
Duration : 1h 51mn
Bit rate : 1 475 Kbps
Width : 720 pixels
Height : 384 pixels
Display aspect ratio : 1.85:1
Frame rate : 24.000 fps
Color space : YUV
Chroma subsampling : 4:2:0
Bit depth : 8 bits
Scan type : Progressive
Compression mode : Lossy
Bits/(Pixel*Frame) : 0.222
Stream size : 1.15 GiB (79%)
Writing library : XviD 1.2.1 (UTC 2008-12-04)
Audio
ID : 1
Format : AC-3
Format/Info : Audio Coding 3
Mode extension : CM (complete main)
Format settings, Endianness : Big
Codec ID : 2000
Duration : 1h 51mn
Bit rate mode : Constant
Bit rate : 384 Kbps
Channel(s) : 6 channels
Channel positions : Front: L C R, Side: L R, LFE
Sampling rate : 48.0 KHz
Compression mode : Lossy
Stream size : 307 MiB (21%)
Alignment : Split accross interleaves
Interleave, duration : 42 ms (1.00 video frame)
Interleave, preload duratio : 500 ms
-Скриншоты:-- -
Download / Скачать

Хотите скачать бесплатно? Зарегистрируйтесь на сайте (ссылка на регистрацию). Pirat.ca - самый быстрый торрент трекер в рунете!

Как скачивать  ·   Что такое торрент  ·   Рейтинг и ограничения

spidercola86

3251

Пост 02-Июл-2015 15:17 (спустя 4 часа)

[Q] 

Последний фильм не ужели 14 летний сериал подошел к концу?
[Профиль]  [ЛС] 

clavik21

Мичман

674

Пост 02-Июл-2015 15:37 (спустя 19 минут)

[Q] 

не потом выйдет фильм про боруто про сына наруто про борута уже манга есть наверно тоже сделают аниме сериал про боруто типа продолжение наруто

_________________
[Профиль]  [ЛС] 

MaXoR

Флибустьер

1475

Пост 02-Июл-2015 21:36 (спустя 5 часов)

[Q] 

689217не потом выйдет фильм про боруто про сына наруто про борута уже манга есть наверно тоже сделают аниме сериал про боруто типа продолжение наруто
Понятно. Эта песня без конца - начинай сначала)

_________________
Живы будем - не помрем!
[Профиль]  [ЛС] 

salavat1234

Гроза морей

Пост 02-Июл-2015 21:48 (спустя 12 минут)

[Q] 

Спасибо. ребёнок будет рад Лови бочку Автору респект!!!
[Профиль]  [ЛС] 

[email protected]

Морской Волк

Пост 02-Июл-2015 22:21 (спустя 33 минуты)

[Q] 

Будет что посмотреть в выходные

_________________
[Профиль]  [ЛС] 

Lex890

Морской Волк

Пост 02-Июл-2015 22:51 (спустя 30 минут)

[Q] 

Спасибо посмотрим Спасибо!!!
[Профиль]  [ЛС] 

Ganjik

Пост 03-Июл-2015 11:38 (спустя 12 часов)

[Q] 

689216Последний фильм не ужели 14 летний сериал подошел к концу?
не сериал, а серия полнометражных фильмов, а сериал еще продолжается =)))
[Профиль]  [ЛС] 

АЛЕКСА2005

Корсар

Пост 05-Июл-2015 20:38 (спустя 2 дня 9 часов)

[Q] 

Спасибо!!! Лови бочку
[Профиль]  [ЛС] 

Начертатель

Корсар

Пост 05-Июл-2015 22:20 (спустя 1 час 41 минута)

[Q] 

смотрел еще в кино, в отличии от остальных фильмов, этот явно поинтереснее. Не заспойлерили многие моменты, для тех кто смотрит адаптацию аниме, но не читал мангу. Интересно раскрыта история отношения Наруто и Хинаты, но если судить по дракам, то не тянет он на легендарного шиноби, после 4ой войны, хотя и стал обладать большим потенциалом. Ждал больше моментов с Саске, но не судьба. И еще на луне без кислорода весьма клево держатся, но на это пофиг. Порадовало историческое ответвление о брате Рикудо, и чем он занимался в свободное время) Для любителей романтики и сенена фильм зайдет! автору сяб

_________________
Rival
[Профиль]  [ЛС] 

dambrina

Флибустьер

Пост 27-Июл-2015 22:07 (спустя 21 день)

[Q] 

не смотрел сериал, посмотрю фильм +)
[Профиль]  [ЛС] 

Pasha killer

Корсар

Пост 09-Сен-2015 01:44 (спустя 1 месяц 12 дней)

[Q] 

Спасибо!!! Автору респект!!! кто не смотрел аниме, возможно захочет посмотреть после просмотра фильма,
[Профиль]  [ЛС] 

gekas3

Шкипер

Пост 05-Ноя-2015 21:33 (спустя 1 месяц 26 дней)

[Q] 

филь так в принципесмотрибелен
[Профиль]  [ЛС] 
Показать сообщения:    
Ответить на тему

Текущее время: Сегодня 09:45

Часовой пояс: GMT + 4



Вы не можете начинать темы
Вы не можете отвечать на сообщения
Вы не можете редактировать свои сообщения
Вы не можете удалять свои сообщения
Вы не можете голосовать в опросах
Вы не можете прикреплять файлы к сообщениям
Вы не можете скачивать файлы

▼ Вниз