ML
     
  Уважаемый Гость!
Вы можете поддержать проект и зарегистрироваться у наших партнеров - онлайн-стратегия MyLands. При регистрации в игре Вы получите код, который сможете активировать после регистрации на pirat.ca и получить 1000 дублонов.

Ваш код:
a6d1ef7ff63e237add5a4c8b21d8aa937c5e9b4b
 
     

Том и Джерри: Шпион Квест / Tom and Jerry: Spy Quest (Спайк Брандт / Spike Brandt, Тони Червоне / Tony Cervone) [2015 г., мультфильм, WEB-DLRip] MVO (iTunes)

Ответить на тему
 
Автор
Сообщение

Пост 05-Июл-2015 18:35

[Q] 

LPPI

-Том и Джерри: Шпион Квест / Tom and Jerry: Spy Quest- Производство: США
Год выпуска: 2015 г.
Жанр: мультфильм
Продолжительность: 01:12:53
Мировая премьера: 9 июня 2015-Перевод: Профессиональный (многоголосный, закадровый) [iTunes]-Режиссер: Спайк Брандт / Spike Brandt, Тони Червоне / Tony Cervone
В ролях: Риз Хартвиг-Описание: Ещё один день на пляже для проблемной парочки, пока Том и Джерри не сталкиваются со шпионами Джонни Квестом, Хаджи и Бандитом. Когда давний враг семьи Квестов, доктор Зин, узнаёт о том, что у Бентона Квеста есть орудие решения энергетических проблем мира, он посылает армию злобных кошек украсть его и взять в плен Бентона вместе с охранником Рэйсом Бэнноном. Джонни и его новые пушистые друзья отправляются на опасные поиски отца в попытке спасти мир!- -Качество видео: WEB-DLRip
Контейнер: AVI
Видео кодек: XviD
Аудио кодек: AC3
Видео: 720x400 (1.80:1), 23.976 fps, XviD build 73 ~2291 kbps avg, 0.33 bit/pixel
Аудио: Russian: 48 kHz, AC3 Dolby Digital, 3/2 (L,C,R,l,r) + LFE ch, ~384 kbps
Cубтитры: отсутствуют-
General
Complete name : F:\Tom.i.Dzherri.Shpionskie.Igry.2015.P.WEB-DLRip.1400MB.avi
Format : AVI
Format/Info : Audio Video Interleave
File size : 1.37 GiB
Duration : 1h 12mn
Overall bit rate : 2 685 Kbps
Writing application : VirtualDubMod 1.5.10.3 | www.virtualdub-fr.org || (build 2550/release)
Video
ID : 0
Format : MPEG-4 Visual
Format profile : Advanced [email protected]
Format settings, BVOP : 3
Format settings, QPel : No
Format settings, GMC : No warppoints
Format settings, Matrix : Default (H.263)
Codec ID : XVID
Codec ID/Hint : XviD
Duration : 1h 12mn
Bit rate : 2 291 Kbps
Width : 720 pixels
Height : 400 pixels
Display aspect ratio : 16:9
Frame rate : 23.976 fps
Color space : YUV
Chroma subsampling : 4:2:0
Bit depth : 8 bits
Scan type : Progressive
Compression mode : Lossy
Bits/(Pixel*Frame) : 0.332
Stream size : 1.17 GiB (85%)
Writing library : XviD 73
Audio
ID : 1
Format : AC-3
Format/Info : Audio Coding 3
Mode extension : CM (complete main)
Format settings, Endianness : Big
Codec ID : 2000
Duration : 1h 12mn
Bit rate mode : Constant
Bit rate : 384 Kbps
Channel(s) : 6 channels
Channel positions : Front: L C R, Side: L R, LFE
Sampling rate : 48.0 KHz
Compression mode : Lossy
Stream size : 200 MiB (14%)
Alignment : Split accross interleaves
Interleave, duration : 42 ms (1.00 video frame)
Interleave, preload duratio : 500 ms
-Скриншоты:-- -
Download / Скачать

Хотите скачать бесплатно? Зарегистрируйтесь на сайте (ссылка на регистрацию). Pirat.ca - самый быстрый торрент трекер в рунете!

Как скачивать  ·   Что такое торрент  ·   Рейтинг и ограничения

salavat1234

Гроза морей

Пост 05-Июл-2015 19:22 (спустя 46 минут)

[Q] 

Спасибо!!!
[Профиль]  [ЛС] 

Sevasiy59

Пост 05-Июл-2015 19:53 (спустя 31 минута)

[Q] 

ОФФТОП!
!Слепой Пью писал(а):

Злостный оффтоп. бан на неделю.
[Профиль]  [ЛС] 

АЛЕКСА2005

Корсар

Пост 05-Июл-2015 20:27 (спустя 33 минуты)

[Q] 

Автору респект!!! Лови бочку
[Профиль]  [ЛС] 

Jek@

Легенда

Пост 06-Июл-2015 16:36 (спустя 20 часов)

[Q] 

Спасибо!!! .
[Профиль]  [ЛС] 

zlotosalien

Флибустьер

Пост 06-Июл-2015 21:32 (спустя 4 часа)

[Q] 

ОФФТОП!
[Профиль]  [ЛС] 

bolin

Флибустьер

Пост 06-Июл-2015 22:15 (спустя 43 минуты)

[Q] 

Забираю пупсарям! Автор Лови бочку
На форуме  [Профиль]  [ЛС] 

SCRET

Корсар

Пост 06-Июл-2015 22:59 (спустя 44 минуты)

[Q] 

вспомнил детство! отличный мульт!
[Профиль]  [ЛС] 

bitday

Флибустьер

Пост 09-Июл-2015 20:12 (спустя 2 дня 21 час)

[Q] 

ОФФТОП!
!Слепой Пью писал(а):

Злостный оффтоп. бан на неделю.
[Профиль]  [ЛС] 

Mennny

Пост 09-Июл-2015 22:55 (спустя 2 часа 42 минуты)

[Q] 

ОФФТОП!
!Слепой Пью писал(а):

Злостный оффтоп. бан на неделю.
[Профиль]  [ЛС] 

realyu

Корсар

Пост 13-Июл-2015 02:47 (спустя 3 дня)

[Q] 

Mennny, жамкнул кнопку "Пожаловаться" - задолбали уже ты и тебе подобные со своими знаменами, лозунгами и агитками. Ну чего ты с политикой в мультики ползешь? Мест тебе, что ли, мало? Харьковский и севастопольский форум будут рады тебе, давайдосвидания!
[Профиль]  [ЛС] 

fishman

Корсар

Пост 22-Июл-2015 17:48 (спустя 9 дней)

[Q] 

Заценим семейным просмотром!
Раздающему респект! Лови бочку

_________________
|___|___|___|___|___|___|___|__|__
__|__|__|_Биться головой_|___|___|
|___|___|___|__сюда!!___|___|__|__
__|___|___|___|___|___|___|__|__
[Профиль]  [ЛС] 
Показать сообщения:    
Ответить на тему

Текущее время: Сегодня 13:34

Часовой пояс: GMT + 4



Вы не можете начинать темы
Вы не можете отвечать на сообщения
Вы не можете редактировать свои сообщения
Вы не можете удалять свои сообщения
Вы не можете голосовать в опросах
Вы не можете прикреплять файлы к сообщениям
Вы не можете скачивать файлы

▼ Вниз