ML
     
  Уважаемый Гость!
Вы можете поддержать проект и зарегистрироваться у наших партнеров - онлайн-стратегия MyLands. При регистрации в игре Вы получите код, который сможете активировать после регистрации на pirat.ca и получить 1000 дублонов.

Ваш код:
11f49771fdf057c9d51610e4a0925c3b46ddb655
 
     

Супер-пупер мультфильм от Джея и Молчаливого Боба / Jay and Silent Bob's Super Groovy Cartoon Movie (Стив Старк / Steve Stark) [2013 г., мультфильм, комедия, WEB-DLRip] VO (М. Яроцкий) + Original (Eng)

Ответить на тему
 
Автор
Сообщение

Пост 05-Июл-2015 18:55

[Q] 

LPPI

-Супер-пупер мультфильм от Джея и Молчаливого Боба / Jay and Silent Bob's Super Groovy Cartoon Movie- Производство: США
Год выпуска: 2013 г.
Жанр: мультфильм, комедия
Продолжительность: 01:03:50
Мировая премьера: 20 апреля 2013-Перевод: Любительский (одноголосный, закадровый) [Михаил "kyberpunk" Яроцкий]

Оригинальный аудиопоток: английский-Режиссер: Стив Старк / Steve Stark
В ролях: Минг Чен, Мэтт Коэн, Кевин Конрой, Элиза Душку, Уолтер Флэнаган, Джеймс Франко мл., Нил Гейман, Ральф Гармен-Описание: Мультфильм рассказывает о том, как два известных раздолбая Джей и Тихий Боб выигрывают $10000000 в лотерею и решают стать супергероями. И чтобы защитить город, им придется сразиться с целой бандой суперзлодеев - Лигой Засранцев.
Мульт изобилует матершиной, пошлостью и неполиткорректностью. Поклонникам Вселенной View Askew данное творение придется по вкусу.- -Качество видео: WEB-DLRip
Контейнер: AVI
Видео кодек: XviD
Аудио кодек: MP3
Видео: 720x400 (1.80:1), 23.976 fps, XviD MPEG-4 ~1197 kbps avg, 0.17 bit/pixel
Аудио: Russian: 44.100 kHz, MPEG Layer 3, 2 ch, ~128.00 kbps avg
Аудио #2: English: 48 kHz, MPEG Layer 3, 2 ch, ~192.00 kbps avg
Cубтитры: отсутствуют-
General
Complete name : F:\Jay.and.Silent.Bobs.WEBDLRip.700mb.avi
Format : AVI
Format/Info : Audio Video Interleave
File size : 700 MiB
Duration : 1h 3mn
Overall bit rate : 1 532 Kbps
Writing application : VirtualDubModRus 1.5.10.2 (build 2542/release)
Writing library : VirtualDubMod build 2542/release
Video
ID : 0
Format : MPEG-4 Visual
Format profile : [email protected]
Format settings, BVOP : No
Format settings, QPel : No
Format settings, GMC : No warppoints
Format settings, Matrix : Default (H.263)
Codec ID : XVID
Codec ID/Hint : XviD
Duration : 1h 3mn
Bit rate : 1 198 Kbps
Width : 720 pixels
Height : 400 pixels
Display aspect ratio : 16:9
Frame rate : 23.976 fps
Color space : YUV
Chroma subsampling : 4:2:0
Bit depth : 8 bits
Scan type : Progressive
Compression mode : Lossy
Bits/(Pixel*Frame) : 0.173
Stream size : 547 MiB (78%)
Writing library : Lavc55.55.104
Audio #1
ID : 1
Format : MPEG Audio
Format version : Version 1
Format profile : Layer 3
Codec ID : 55
Codec ID/Hint : MP3
Duration : 1h 3mn
Bit rate mode : Constant
Bit rate : 128 Kbps
Channel(s) : 2 channels
Sampling rate : 44.1 KHz
Compression mode : Lossy
Stream size : 58.5 MiB (8%)
Alignment : Split accross interleaves
Interleave, duration : 42 ms (1.00 video frame)
Interleave, preload duratio : 500 ms
Writing library : LAME3.99r
Encoding settings : -m s -V 4 -q 2 -lowpass 17 -b 128
Audio #2
ID : 2
Format : MPEG Audio
Format version : Version 1
Format profile : Layer 3
Codec ID : 55
Codec ID/Hint : MP3
Duration : 1h 3mn
Bit rate mode : Constant
Bit rate : 192 Kbps
Channel(s) : 2 channels
Sampling rate : 48.0 KHz
Compression mode : Lossy
Stream size : 87.7 MiB (13%)
Alignment : Aligned on interleaves
Interleave, duration : 42 ms (1.00 video frame)
Interleave, preload duratio : 504 ms
Writing library : LAME3.99r
Encoding settings : -m s -V 4 -q 0 -lowpass 18.6 -b 192
-Скриншоты:-- -
Download / Скачать

Хотите скачать бесплатно? Зарегистрируйтесь на сайте (ссылка на регистрацию). Pirat.ca - самый быстрый торрент трекер в рунете!

Как скачивать  ·   Что такое торрент  ·   Рейтинг и ограничения

Андря

8419

Пост 06-Июл-2015 02:48 (спустя 7 часов)

[Q] 

о лопни мой мозг!!!

_________________
Като Тешекика
[Профиль]  [ЛС] 

SCRET

Корсар

Пост 07-Июл-2015 19:02 (спустя 1 день 16 часов)

[Q] 

жесткий треш)))))
[Профиль]  [ЛС] 

Wolf111

57121

Пост 02-Авг-2015 01:03 (спустя 25 дней)

[Q] 

Просто жесть !COOL! Автору респект!!!
[Профиль]  [ЛС] 

balamutych 8

Шкипер

Пост 11-Июл-2016 21:50 (спустя 11 месяцев 9 дней)

[Q] 

Спасибо-заценим
[Профиль]  [ЛС] 
Показать сообщения:    
Ответить на тему

Текущее время: Сегодня 03:10

Часовой пояс: GMT + 4



Вы не можете начинать темы
Вы не можете отвечать на сообщения
Вы не можете редактировать свои сообщения
Вы не можете удалять свои сообщения
Вы не можете голосовать в опросах
Вы не можете прикреплять файлы к сообщениям
Вы не можете скачивать файлы

▼ Вниз