ML
     
  Уважаемый Гость!
Вы можете поддержать проект и зарегистрироваться у наших партнеров - онлайн-стратегия MyLands. При регистрации в игре Вы получите код, который сможете активировать после регистрации на pirat.ca и получить 1000 дублонов.

Ваш код:
0ea1bf889af42fca5f67d0a391efb3400850ad7c
 
     

Дом / Home (Тим Джонсон / Tim Johnson) [2015 г., мультфильм, фантастика, фэнтези, комедия, приключения, семейный, BDRip-AVC] Dub [Rus, Ukr] (Лицензия) + Original (Eng) + Sub (Rus, Ukr, Eng) [Jolly Roger]

Ответить на тему
 
Автор
Сообщение

Пост 08-Июл-2015 11:30

[Q] 

LPPI

-Дом / Home- Год выпуска: 2015 г.
Производство: США
Жанр: мультфильм, фантастика, фэнтези, комедия, приключения, семейный
Продолжительность: 01:33:48
Перевод: Профессиональный (полное дублирование) (Rus, Ukr) [Лицензия]
Оригинальный аудиопоток: английский
Режиссер: Тим Джонсон / Tim Johnson
В ролях: Джим Парсонс, Рианна, Стив Мартин, Дженнифер Лопез, Мэтт Джонс, Брайан Степанек, Эйприл Стрюбинг, Стивен Кеарин, Лиза Стюарт, Эйприл Уинчелл
Описание: Захватив Землю, раса пришельцев Був тут же начинает заниматься её благоустройством и реорганизацией. «Не стоит благодарности!» — заявляют они землянам, собранным на время в отдельных резервациях. Находчивая и рисковая девочка по имени Дар, чудом сбежавшая от пришельцев, встречает на своем пути самого раздражающе-оптимистичного Бува по имени О, отвергнутого своими инопланетными собратьями. Этой, казалось бы, несовместимой парочке предстоит спасти нашу планету. Хорошо, что у них есть летающий автомобиль! Качество видео: BDRip-AVC
Контейнер: MKV
Видео кодек: H.264
Аудио кодек: AC3
Видео: MPEG4 Video (H264) 1024x576 23.976fps 1977 Kbps
Аудио 1: Dolby AC3 48000Hz 6ch 448 Kbps / Русский
Аудио 2: Dolby AC3 48000Hz 6ch 448 Kbps / Украинский
Аудио 3: Dolby AC3 48000Hz 6ch 448 Kbps / Английский
Субтитры: Русские, украинские, английские (отключаемые)
avs [info]: 1024x576p 1:1 @ 2500000/104271 fps (cfr)
x264 [info]: using SAR=1/1
x264 [info]: using cpu capabilities: MMX2 SSE2Fast SSSE3 SSE4.2 AVX
x264 [info]: profile Main, level 3.1
x264 [info]: frame I:1421 Avg QP:19.59 size: 51100
x264 [info]: frame P:39423 Avg QP:21.05 size: 19921
x264 [info]: frame B:94097 Avg QP:22.95 size: 5569
x264 [info]: consecutive B-frames: 6.2% 5.7% 14.7% 44.0% 14.6% 12.2% 1.5% 1.1%
x264 [info]: mb I I16..4: 32.5% 0.0% 67.5%
x264 [info]: mb P I16..4: 28.1% 0.0% 0.0% P16..4: 53.8% 0.0% 0.0% 0.0% 0.0% skip:18.1%
x264 [info]: mb B I16..4: 4.3% 0.0% 0.0% B16..8: 26.4% 0.0% 0.0% direct: 9.3% skip:60.0% L0:31.1% L1:40.0% BI:28.9%
x264 [info]: final ratefactor: 21.43
x264 [info]: direct mvs spatial:97.1% temporal:2.9%
x264 [info]: coded y,uvDC,uvAC intra: 56.7% 64.1% 31.3% inter: 17.5% 17.2% 5.9%
x264 [info]: i16 v,h,dc,p: 31% 29% 22% 17%
x264 [info]: i4 v,h,dc,ddl,ddr,vr,hd,vl,hu: 21% 23% 13% 8% 8% 7% 8% 6% 7%
x264 [info]: i8c dc,h,v,p: 47% 25% 19% 8%
x264 [info]: Weighted P-Frames: Y:8.3% UV:5.9%
x264 [info]: kb/s:1964.32
x264 [total]: encoded 134941 frames, 63.05 fps, 1964.32 kb/s

General
Unique ID : 214163229517297505526069749776788063295 (0xA11E5671A214CEDDAD72797D16B5843F)
Complete name : F:\Мои рипы\Home.2015.H.264.BDRip-AVC.JRG.mkv
Format : Matroska
Format version : Version 4 / Version 2
File size : 2.18 GiB
Duration : 1h 33mn
Overall bit rate : 3 324 Kbps
Movie name : The Jolly Roger Release Group by Pirat.CA
Encoded date : UTC 2015-07-05 18:47:01
Writing application : mkvmerge v7.8.0 ('River Man') 32bit built on Mar 27 2015 16:18:02
Writing library : libebml v1.3.1 + libmatroska v1.4.2
Attachements : cover.jpg
DURATION : 01:23:11.753000000
NUMBER_OF_FRAMES : 1173
NUMBER_OF_BYTES : 55571
_STATISTICS_WRITING_APP : mkvmerge v7.8.0 ('River Man') 32bit built on Mar 27 2015 16:18:02
_STATISTICS_WRITING_DATE_UT : 2015-07-05 18:47:01
_STATISTICS_TAGS : BPS DURATION NUMBER_OF_FRAMES NUMBER_OF_BYTES
Video
ID : 1
Format : AVC
Format/Info : Advanced Video Codec
Format profile : [email protected]
Format settings, CABAC : Yes
Format settings, ReFrames : 7 frames
Codec ID : V_MPEG4/ISO/AVC
Duration : 1h 33mn
Bit rate : 1 977 Kbps
Width : 1 024 pixels
Height : 576 pixels
Display aspect ratio : 16:9
Frame rate mode : Constant
Frame rate : 23.976 fps
Color space : YUV
Chroma subsampling : 4:2:0
Bit depth : 8 bits
Scan type : Progressive
Bits/(Pixel*Frame) : 0.140
Stream size : 1.25 GiB (58%)
Title : Дом / Home
Writing library : x264 core 130 r2273 b3065e6
Encoding settings : cabac=1 / ref=7 / deblock=1:-3:-3 / analyse=0x3:0x113 / me=umh / subme=10 / psy=1 / psy_rd=1.00:0.15 / mixed_ref=0 / me_range=32 / chroma_me=1 / trellis=2 / 8x8dct=1 / cqm=0 / deadzone=21,11 / fast_pskip=0 / chroma_qp_offset=-3 / threads=12 / lookahead_threads=2 / sliced_threads=0 / nr=0 / decimate=0 / interlaced=0 / bluray_compat=0 / constrained_intra=0 / bframes=7 / b_pyramid=2 / b_adapt=2 / b_bias=0 / direct=3 / weightb=1 / open_gop=0 / weightp=2 / keyint=250 / keyint_min=23 / scenecut=40 / intra_refresh=0 / rc=2pass / mbtree=0 / bitrate=1977 / ratetol=1.0 / qcomp=0.60 / qpmin=0 / qpmax=69 / qpstep=4 / cplxblur=20.0 / qblur=0.5 / ip_ratio=1.40 / pb_ratio=1.30 / aq=1:1.00
Language : English
Default : Yes
Forced : Yes
DURATION : 01:33:48.173000000
NUMBER_OF_FRAMES : 134941
NUMBER_OF_BYTES : 1391057156
_STATISTICS_WRITING_APP : mkvmerge v7.8.0 ('River Man') 32bit built on Mar 27 2015 16:18:02
_STATISTICS_WRITING_DATE_UT : 2015-07-05 18:47:01
_STATISTICS_TAGS : BPS DURATION NUMBER_OF_FRAMES NUMBER_OF_BYTES
Audio #1
ID : 2
Format : AC-3
Format/Info : Audio Coding 3
Mode extension : CM (complete main)
Format settings, Endianness : Big
Codec ID : A_AC3
Duration : 1h 33mn
Bit rate mode : Constant
Bit rate : 448 Kbps
Channel(s) : 6 channels
Channel positions : Front: L C R, Side: L R, LFE
Sampling rate : 48.0 KHz
Compression mode : Lossy
Stream size : 301 MiB (13%)
Title : Dub (Лицензия)
Language : Russian
Default : Yes
Forced : Yes
Audio #2
ID : 3
Format : AC-3
Format/Info : Audio Coding 3
Mode extension : CM (complete main)
Format settings, Endianness : Big
Codec ID : A_AC3
Duration : 1h 33mn
Bit rate mode : Constant
Bit rate : 448 Kbps
Channel(s) : 6 channels
Channel positions : Front: L C R, Side: L R, LFE
Sampling rate : 48.0 KHz
Compression mode : Lossy
Stream size : 301 MiB (13%)
Title : Dub (Лицензия)
Language : Ukrainian
Default : No
Forced : No
Audio #3
ID : 4
Format : AC-3
Format/Info : Audio Coding 3
Mode extension : CM (complete main)
Format settings, Endianness : Big
Codec ID : A_AC3
Duration : 1h 33mn
Bit rate mode : Constant
Bit rate : 448 Kbps
Channel(s) : 6 channels
Channel positions : Front: L C R, Side: L R, LFE
Sampling rate : 48.0 KHz
Compression mode : Lossy
Stream size : 301 MiB (13%)
Title : Original
Language : English
Default : No
Forced : No
Text #1
ID : 5
Format : UTF-8
Codec ID : S_TEXT/UTF8
Codec ID/Info : UTF-8 Plain Text
Title : Forced
Language : Russian
Default : Yes
Forced : Yes
Text #2
ID : 6
Format : UTF-8
Codec ID : S_TEXT/UTF8
Codec ID/Info : UTF-8 Plain Text
Title : Full
Language : Russian
Default : No
Forced : No
Text #3
ID : 7
Format : UTF-8
Codec ID : S_TEXT/UTF8
Codec ID/Info : UTF-8 Plain Text
Title : Forced
Language : Ukrainian
Default : No
Forced : No
Text #4
ID : 8
Format : UTF-8
Codec ID : S_TEXT/UTF8
Codec ID/Info : UTF-8 Plain Text
Title : Full
Language : Ukrainian
Default : No
Forced : No
Text #5
ID : 9
Format : UTF-8
Codec ID : S_TEXT/UTF8
Codec ID/Info : UTF-8 Plain Text
Title : Full
Language : English
Default : No
Forced : No
Menu
00:00:00.000 : en:00:00:00.000
00:03:43.723 : en:00:03:43.723
00:03:43.805 : en:00:03:43.805
00:07:28.406 : en:00:07:28.406
00:11:19.470 : en:00:11:19.470
00:14:26.948 : en:00:14:26.948
00:17:58.951 : en:00:17:58.951
00:21:05.638 : en:00:21:05.638
00:25:18.849 : en:00:25:18.849
00:29:07.077 : en:00:29:07.077
00:33:14.616 : en:00:33:14.616
00:38:58.960 : en:00:38:58.960
00:41:31.155 : en:00:41:31.155
00:44:27.539 : en:00:44:27.539
00:46:50.932 : en:00:46:50.932
00:51:34.757 : en:00:51:34.757
00:56:25.923 : en:00:56:25.923
01:00:43.681 : en:01:00:43.681
01:03:53.496 : en:01:03:53.496
01:06:57.722 : en:01:06:57.722
01:09:44.180 : en:01:09:44.180
01:13:55.764 : en:01:13:55.764
01:18:11.770 : en:01:18:11.770
01:21:55.368 : en:01:21:55.368
01:23:56.029 : en:01:23:56.029

Download / Скачать

Хотите скачать бесплатно? Зарегистрируйтесь на сайте (ссылка на регистрацию). Pirat.ca - самый быстрый торрент трекер в рунете!

Как скачивать  ·   Что такое торрент  ·   Рейтинг и ограничения

Jek@

Легенда

Пост 08-Июл-2015 17:05 (спустя 5 часов)

[Q] 

Спасибо!!! .
[Профиль]  [ЛС] 

salavat1234

Гроза морей

Пост 08-Июл-2015 20:39 (спустя 3 часа)

[Q] 

Автору респект!!! Лови бочку
[Профиль]  [ЛС] 

Полтос

Флибустьер

Пост 08-Июл-2015 22:04 (спустя 1 час 25 минут)

[Q] 

Вполне не плохо, детям, особливо маленьким - понравится. Хотя, до сих пор меня коробит, когда уже не в первый пиндосский мульт авторы легко и незатейливо (типа из политкорректности) впихивают лёгкую голубиную линию...

_________________
Первый закон Прапорщика: Всё что поднимаемо - относительно!)
[Профиль]  [ЛС] 

nakme

Штурман

Пост 09-Июл-2015 01:15 (спустя 3 часа)

[Q] 

690295Вполне не плохо, детям, особливо маленьким - понравится. Хотя, до сих пор меня коробит, когда уже не в первый пиндосский мульт авторы легко и незатейливо (типа из политкорректности) впихивают лёгкую голубиную линию...
Надо пересмотреть, каждый раз смотрю кусками, голубизны не заметил - или то, что нет полового признака Бувов?. А так, да. обалденный мультик, взрослым тоже понарвится.
[Профиль]  [ЛС] 

SCRET

Корсар

Пост 11-Июл-2015 21:22 (спустя 2 дня 20 часов)

[Q] 

Пиратка рулит! Автору респект!!!
[Профиль]  [ЛС] 

dambrina

Флибустьер

Пост 12-Июл-2015 18:56 (спустя 21 час)

[Q] 

Раздающему респект!
[Профиль]  [ЛС] 

Wolf111

57084

Пост 02-Авг-2015 18:54 (спустя 20 дней)

[Q] 

!COOL! Автору респект!!!
[Профиль]  [ЛС] 

TriToN_S

Штурман

Пост 04-Авг-2015 19:27 (спустя 2 дня)

[Q] 

Спасибо! Супер! Автору респект!!!
[Профиль]  [ЛС] 

arkada230573

Морской Волк

Пост 04-Авг-2015 21:26 (спустя 1 час 59 минут)

[Q] 

Спасибо посмотрим!
[Профиль]  [ЛС] 

Demon198455

Шкипер

Пост 08-Авг-2015 11:57 (спустя 3 дня)

[Q] 

Спасибо!!! Лови бочку
[Профиль]  [ЛС] 

SheffMSK

Юнга

Пост 15-Авг-2015 01:51 (спустя 6 дней)

[Q] 

СПасибо))) Спасибо!!!
[Профиль]  [ЛС] 

balex26

Корсар

Пост 09-Дек-2015 03:43 (спустя 3 месяца 25 дней)

[Q] 

Улётный мульт, от взрослого до малого все в восторге. Автору респект!!! Всем качать!!!
[Профиль]  [ЛС] 

buzuvir

Корсар

Пост 30-Янв-2016 19:06 (спустя 1 месяц 21 день)

[Q] 

Четкий мультик, мне понравился aa Автору респект!!!

_________________
[Профиль]  [ЛС] 
Показать сообщения:    
Ответить на тему

Текущее время: Сегодня 00:36

Часовой пояс: GMT + 4



Вы не можете начинать темы
Вы не можете отвечать на сообщения
Вы не можете редактировать свои сообщения
Вы не можете удалять свои сообщения
Вы не можете голосовать в опросах
Вы не можете прикреплять файлы к сообщениям
Вы не можете скачивать файлы

▼ Вниз