ML
     
  Уважаемый Гость!
Вы можете поддержать проект и зарегистрироваться у наших партнеров - онлайн-стратегия MyLands. При регистрации в игре Вы получите код, который сможете активировать после регистрации на pirat.ca и получить 1000 дублонов.

Ваш код:
5af7de75d3db09b6a37bc8bab71b0e87ccde73d6
 
     

Спасатели / The Rescuers (Джон Лоунсбери / John Lounsbery, Вольфганг Райтерман / Wolfgang Reitherman, Арт Стивенс / Art Stevens) [1977 г., приключения, семейный, мультфильм, DVDRip] Dub + Original + Subs

Ответить на тему
 
Автор
Сообщение

Пост 26-Янв-2012 16:46

[Q] 

Андря

Спасатели / The Rescuers Год выпуска: 1977
Страна: США
Жанр: приключения, семейный, мультфильм
Продолжительность: 01:14:02
Перевод: Профессиональный (полное дублирование)
Субтитры: Русские, английские (внешние)
Режиссёры: Джон Лоунсбери / John Lounsbery, Вольфганг Райтерман / Wolfgang Reitherman, Арт Стивенс / Art Stevens
Описание: Мультэкранизация по мотивам сказок Марджери Шарп "Спасатели" и "Мисс Бьянка". В Нью-Йорке в здании Организации Объединённых Наций разместилось международное мышиное Общество Помощи и Спасения. На сей раз мышиные делегаты со всего света собрались, чтобы обсудить полученный призыв о помощи от маленькой девочки Пенни, попавшей в какую-то передрягу. Две смелые мышки мисс Бьянка и её помощник Бернард направляются на поиски и попадают при помощи комично-нерасторопного авиарикши Альбатроса Орвилла в Бухту Дьявола. Именно здесь в плену у безжалостной госпожи Медузы под охраной её любимчиков двух злобных жирных крокодилов томится Пенни, которую угрозами принуждают достать "Дьявольский глаз" — огромный алмаз из пещеры, куда может пробраться только ребенок. Объединившись с местным звериным народом, "спасатели" дают злодеям решительный бой.
Залихватские приключения на суше, воде и в воздухе поданы с изрядной долей пародии на шпионские детективы в духе Джеймса Бонда. Немало в картине и запоминающихся песен "Путешествие" (The Journey), "Общество спасателей" (Rescue Aid Society), "Кто спасет меня?" (Who Will Rescue Me?) и др. А лучшей из всех была признана "Кто-то ждёт тебя" (Someone's Waiting for You), удостоенная оскаровской номинации за лучшую песню года.
Качество: DVDRip
Формат: AVI
Видео кодек: XviD
Аудио кодек: AC3
Видео: XviD, 720x432, 2059 Кбит/сек, 25,000 кадров/сек, 8 бит
Аудио Rus: AC3, 192 Кбит/сек, 2 канала, Front: L R, 48,0 КГц, 16 бит
Аудио Eng: AC3, 384 Кбит/сек, 6 каналов, Front: L C R, Side: L R, LFE, 48,0 КГц, 16 бит
Общее
Полное имя : Spasateli\Spasateli.avi
Формат : AVI
Формат/Информация : Audio Video Interleave
Размер файла : 1,37 Гбайт
Продолжительность : 1 ч. 14 м.
Общий поток : 2649 Кбит/сек
Название фильма : Rescuers (Rus/Eng) /Perfection Series/
Режиссёр : Great Dragon | 25KADR
Программа кодирования : VirtualDubMod 1.5.10.2 (build 2540/release)
Библиотека кодирования : VirtualDubMod build 2540/release
Правообладатель : March 11, 2008
Видео
Идентификатор : 0
Формат : MPEG-4 Visual
Профиль формата : Advanced [email protected]
Параметр BVOP формата : 2
Параметр QPel формата : Да
Параметр GMC формата : Без точки перехода
Параметр матрицы формата : Default (H.263)
Режим смешивания : Сжатый битовый поток
Идентификатор кодека : XVID
Идентификатор кодека/Подсказка : XviD
Продолжительность : 1 ч. 14 м.
Битрейт : 2059 Кбит/сек
Ширина : 720 пикселей
Высота : 432 пикселя
Соотношение сторон : 1,667
Частота кадров : 25,000 кадров/сек
Цветовое пространство : YUV
Субдискретизация насыщенности : 4:2:0
Битовая глубина : 8 бит
Тип развёртки : Прогрессивная
Метод сжатия : С потерями
Бит/(Пиксели*Кадры) : 0.265
Размер потока : 1,06 Гбайт (78%)
Библиотека кодирования : XviD 1.1.2 (UTC 2006-11-01)
Аудио #1
Идентификатор : 1
Формат : AC-3
Формат/Информация : Audio Coding 3
Профиль формата : Dolby Digital
Расширение режима : CM (complete main)
Идентификатор кодека : 2000
Продолжительность : 1 ч. 14 м.
Вид битрейта : Постоянный
Битрейт : 192 Кбит/сек
Каналы : 2 канала
Расположение каналов : Front: L R
Частота : 48,0 КГц
Битовая глубина : 16 бит
Метод сжатия : С потерями
Размер потока : 102 Мбайт (7%)
Выравнивание : Разделение по промежуткам
Продолжительность промежутка : 40 мс. (1,00 видеокадр)
Время предзагрузки промежутка : 500 мс.
Заголовок : Rus
Аудио #2
Идентификатор : 2
Формат : AC-3
Формат/Информация : Audio Coding 3
Расширение режима : CM (complete main)
Идентификатор кодека : 2000
Продолжительность : 1 ч. 14 м.
Вид битрейта : Постоянный
Битрейт : 384 Кбит/сек
Каналы : 6 каналов
Расположение каналов : Front: L C R, Side: L R, LFE
Частота : 48,0 КГц
Битовая глубина : 16 бит
Метод сжатия : С потерями
Размер потока : 203 Мбайт (14%)
Выравнивание : Разделение по промежуткам
Продолжительность промежутка : 40 мс. (1,00 видеокадр)
Время предзагрузки промежутка : 500 мс.
Заголовок : Eng
Общее
Полное имя : Spasateli.\Spasateli.srt
Размер файла : 52,2 Кбайт
Общее
Полное имя : Spasateli\Spasateli.srt
Размер файла : 68,8 Кбайт









Download / Скачать

Хотите скачать бесплатно? Зарегистрируйтесь на сайте (ссылка на регистрацию). Pirat.ca - самый быстрый торрент трекер в рунете!

Как скачивать  ·   Что такое торрент  ·   Рейтинг и ограничения



Последний раз редактировалось: Андря (2012-01-27 14:02), всего редактировалось 1 раз

EVGENYI 79

Штурман

Пост 26-Янв-2012 23:19 (спустя 6 часов)

[Q] 

спасибо....ребенок очень рад bs

_________________
...КАК-ТО ТАК...
[Профиль]  [ЛС] 

Пост 27-Янв-2012 11:46 (спустя 12 часов)

Топик был перенесен из форума Мультипликация в форум Зарубежные полнометражные мультфильмы

Skinwalker
 

phaeton77

Корсар

Пост 27-Янв-2012 19:56 (спустя 20 часов)

[Q] 

[Профиль]  [ЛС] 
Показать сообщения:    
Ответить на тему

Текущее время: Сегодня 14:07

Часовой пояс: GMT + 4



Вы не можете начинать темы
Вы не можете отвечать на сообщения
Вы не можете редактировать свои сообщения
Вы не можете удалять свои сообщения
Вы не можете голосовать в опросах
Вы не можете прикреплять файлы к сообщениям
Вы не можете скачивать файлы

▼ Вниз