ML
     
  Уважаемый Гость!
Вы можете поддержать проект и зарегистрироваться у наших партнеров - онлайн-стратегия MyLands. При регистрации в игре Вы получите код, который сможете активировать после регистрации на pirat.ca и получить 1000 дублонов.

Ваш код:
0ea1bf889af42fca5f67d0a391efb3400850ad7c
 
     

Спасатели в Австралии / The Rescuers Down Under (Хендел Бутой / Hendel Butoy, Майк Гэбриел / Mike Gabriel) [1990 г., приключения, семейный, мультфильм, DVDRip] Dub + Original + Subs

Ответить на тему
 
Автор
Сообщение

Пост 26-Янв-2012 17:48

[Q] 

Андря

Спасатели в Австралии / The Rescuers Down Under Год выпуска: 1990
Страна: США
Жанр: приключения, семейный, мультфильм
Продолжительность: 01:13:58
Перевод: Профессиональный (полное дублирование)
Субтитры: Русские, английские (внешние)
Режиссёры: Хендел Бутой / Hendel Butoy, Майк Гэбриел / Mike Gabriel
Описание: Приготовьтесь к захватывающим и стремительным приключениям в самом сердце Австралии в анимационной классике Диснея "Спасатели в Австралии"!
Далеко в необъятных и непредсказуемых прериях Австралии мальчик по имени Коди подружился с великим золотым орлом. Когда безжалостный браконьер решает поймать орла, Коди вступает на защиту друга. Зная, что ему не справиться в одиночку, он подает зов помощи, на который сразу реагируют две самые храбрые мышки Бернард и Бьянка. Спеша на помощь на крыльях своего веселого друга, альбатроса Вилбура, эти два суперагента готовы выполнить свою самую большую и самую опасную миссию!
Поприветствуйте классическое приключение Диснея, полное незабываемых героев, согревающей дружбы и великолепной анимации — наслаждение, которое полюбит вся ваша семья!
Качество: DVDRip
Формат: AVI
Видео кодек: XviD
Аудио кодек: AC3
Видео: 720x416, 25 fps, XviD MPEG-4 ~2190 kbps avg, 0.29 bit/pixel
Аудио Rus: 48 kHz, AC3 DD, 2/0 (L,R) ch, ~192.00 kbps avg
Аудио Eng: 48 kHz, AC3 DD, 3/2 (L,C,R,l,r) + LFE ch, ~384.00 kbps
Общее
Полное имя : Spasateli.v.Avstralii\Spasateli.v.Avstralii.avi
Формат : AVI
Формат/Информация : Audio Video Interleave
Размер файла : 1,44 Гбайт
Продолжительность : 1 ч. 13 м.
Общий поток : 2782 Кбит/сек
Название фильма : Rescuers Downunder (Rus/Eng) /Perfection Series/
Режиссёр : Great Dragon | 25KADR
Программа кодирования : VirtualDubMod 1.5.10.2 (build 2540/release)
Библиотека кодирования : VirtualDubMod build 2540/release
Правообладатель : March 10, 2008
Видео
Идентификатор : 0
Формат : MPEG-4 Visual
Профиль формата : Advanced [email protected]
Параметр BVOP формата : 2
Параметр QPel формата : Да
Параметр GMC формата : Без точки перехода
Параметр матрицы формата : Default (H.263)
Режим смешивания : Сжатый битовый поток
Идентификатор кодека : XVID
Идентификатор кодека/Подсказка : XviD
Продолжительность : 1 ч. 13 м.
Битрейт : 2191 Кбит/сек
Ширина : 720 пикселей
Высота : 416 пикселей
Соотношение сторон : 16:9
Частота кадров : 25,000 кадров/сек
Цветовое пространство : YUV
Субдискретизация насыщенности : 4:2:0
Битовая глубина : 8 бит
Тип развёртки : Прогрессивная
Метод сжатия : С потерями
Бит/(Пиксели*Кадры) : 0.293
Размер потока : 1,13 Гбайт (79%)
Библиотека кодирования : XviD 1.1.2 (UTC 2006-11-01)
Аудио #1
Идентификатор : 1
Формат : AC-3
Формат/Информация : Audio Coding 3
Профиль формата : Dolby Digital
Расширение режима : CM (complete main)
Идентификатор кодека : 2000
Продолжительность : 1 ч. 13 м.
Вид битрейта : Постоянный
Битрейт : 192 Кбит/сек
Каналы : 2 канала
Расположение каналов : Front: L R
Частота : 48,0 КГц
Битовая глубина : 16 бит
Метод сжатия : С потерями
Размер потока : 102 Мбайт (7%)
Выравнивание : Разделение по промежуткам
Продолжительность промежутка : 40 мс. (1,00 видеокадр)
Время предзагрузки промежутка : 500 мс.
Заголовок : Rus
Аудио #2
Идентификатор : 2
Формат : AC-3
Формат/Информация : Audio Coding 3
Расширение режима : CM (complete main)
Идентификатор кодека : 2000
Продолжительность : 1 ч. 13 м.
Вид битрейта : Постоянный
Битрейт : 384 Кбит/сек
Каналы : 6 каналов
Расположение каналов : Front: L C R, Side: L R, LFE
Частота : 48,0 КГц
Битовая глубина : 16 бит
Метод сжатия : С потерями
Размер потока : 203 Мбайт (14%)
Выравнивание : Разделение по промежуткам
Продолжительность промежутка : 40 мс. (1,00 видеокадр)
Время предзагрузки промежутка : 500 мс.
Заголовок : Eng
Общее
Полное имя : Spasateli.v.Avstralii\Spasateli.v.Avstralii.idx
Размер файла : 110 Кбайт
Общее
Полное имя : Spasateli.v.Avstralii\Spasateli.v.Avstralii.sub
Формат : MPEG-PS
Размер файла : 10,4 Мбайт
Продолжительность : 26 ч.
Общий поток : 910 бит/сек
Текст #1
Идентификатор : 189 (0xBD)-32 (0x20)
Формат : RLE
Формат/Информация : Run-length encoding
Режим смешивания : DVD-Video
Текст #2
Идентификатор : 189 (0xBD)-37 (0x25)
Формат : RLE
Формат/Информация : Run-length encoding
Режим смешивания : DVD-Video
Продолжительность : 26 ч.
Текст #3
Идентификатор : 189 (0xBD)-40 (0x28)
Формат : RLE
Формат/Информация : Run-length encoding
Режим смешивания : DVD-Video
Текст #4
Идентификатор : 189 (0xBD)-45 (0x2D)
Формат : RLE
Формат/Информация : Run-length encoding
Режим смешивания : DVD-Video







Download / Скачать

Хотите скачать бесплатно? Зарегистрируйтесь на сайте (ссылка на регистрацию). Pirat.ca - самый быстрый торрент трекер в рунете!

Как скачивать  ·   Что такое торрент  ·   Рейтинг и ограничения



Последний раз редактировалось: Андря (2012-01-27 14:04), всего редактировалось 1 раз

I.A.N.Dobermaniac

Шкипер

Пост 26-Янв-2012 18:46 (спустя 57 минут)

[Q] 

Автору спасибо большое. В детстве раз 10 точно посмотрел - ваще огонь!
[Профиль]  [ЛС] 

Novvy

Корсар

370

Пост 27-Янв-2012 15:21 (спустя 20 часов)

[Q] 

Крутой мультик) Для любителей камбеков в детство)

_________________
Пыш-пыш
[Профиль]  [ЛС] 

wic777

Корсар

Пост 27-Янв-2012 18:36 (спустя 3 часа)

[Q] 

деток порадую!
[Профиль]  [ЛС] 

phaeton77

Корсар

Пост 27-Янв-2012 19:52 (спустя 1 час 15 минут)

[Q] 

[Профиль]  [ЛС] 

Wolf111

57084

Пост 31-Июл-2012 11:20 (спустя 6 месяцев 3 дня)

[Q] 

Помогу с раздачей
[Профиль]  [ЛС] 
Показать сообщения:    
Ответить на тему

Текущее время: Сегодня 00:38

Часовой пояс: GMT + 4



Вы не можете начинать темы
Вы не можете отвечать на сообщения
Вы не можете редактировать свои сообщения
Вы не можете удалять свои сообщения
Вы не можете голосовать в опросах
Вы не можете прикреплять файлы к сообщениям
Вы не можете скачивать файлы

▼ Вниз