ML
     
  Уважаемый Гость!
Вы можете поддержать проект и зарегистрироваться у наших партнеров - онлайн-стратегия MyLands. При регистрации в игре Вы получите код, который сможете активировать после регистрации на pirat.ca и получить 1000 дублонов.

Ваш код:
a261790f23fb05d13d060bdee9cb70d1451a6d3d
 
     

Скуби-Ду и KISS: Тайна рок-н-ролла / Scooby-Doo! And Kiss: Rock and Roll Mystery (Спайк Брандт, Тони Червоне / Spike Brandt, Tony Cervone) [2015 г., мультфильм, семейный, DVDRip] MVO [Чистый звук] + Original (Eng)

Ответить на тему
 
Автор
Сообщение

Пост 04-Авг-2015 15:56

[Q] 

aleksey99

--Скуби-Ду и KISS: Тайна рок-н-ролла / Scooby-Doo! And Kiss: Rock and Roll Mystery-- Производство: США, Warner Bros. Animation
Год выпуска: 2015 г.
Жанр: мультфильм, семейный
Продолжительность: 01:18:43--Мировая премьера: 10 июля 2015--Перевод: Профессиональный (многоголосый, закадровый) [Чистый звук]
Оригинальный аудиопоток: английский--Режиссер: Спайк Брандт, Тони Червоне / Spike Brandt, Tony Cervone--Роли озвучивали: Тони Червоне, Минди Кон, Грэй Гриффин, Мэттью Лиллард, Док МакГи, Джейсон Мьюз, Дариус Ракер, Джин Симмонс, Эрик Сингер, Пол Стэнли--Описание: Приключения дога по имени Скуби-Ду и его друзей детективов продолжаются. Им предстоит раскрыть новую тайну. Главные герои побывают в мире рока, так как на этот раз одними из персонажей мультфильма станут участники легендарной группы Kiss.-- --Качество видео: DVDRip
Контейнер: AVI
Видео кодек: XviD
Аудио кодек: MP3/AC3
Видео: 720x400 (1.80:1), 23.976 fps, XviD build 50 ~1774 kbps avg, 0.26 bit/pixel
Аудио 1: 48 kHz, MPEG Layer 3, 2 ch, ~320.00 kbps avg RUS
Аудио 2: 48 kHz, AC3 Dolby Digital, 3/2 (L,C,R,l,r) + LFE ch, ~384 kbps ENG
Cубтитры: Отсутствуют
-
Общее
Полное имя : H:\Torrent2\Scooby-Doo.And.Kiss.Rock.and.Roll.Mystery.2015.DVDRip.1400.avi
Формат : AVI
Формат/Информация : Audio Video Interleave
Размер файла : 1,37 Гбайт
Продолжительность : 1 ч. 18 м.
Общий поток : 2493 Кбит/сек
Программа кодирования : VirtualDubMod 1.5.10.3 | www.virtualdub-fr.org || (build 2550/release)
Видео
Идентификатор : 0
Формат : MPEG-4 Visual
Профиль формата : Advanced [email protected]
Параметр BVOP формата : 2
Параметр QPel формата : Нет
Параметр GMC формата : Без точки перехода
Параметр матрицы формата : Выборочная
Идентификатор кодека : XVID
Идентификатор кодека/Подсказка : XviD
Продолжительность : 1 ч. 18 м.
Битрейт : 1775 Кбит/сек
Ширина : 720 пикселей
Высота : 400 пикселей
Соотношение сторон : 16:9
Частота кадров : 23,976 кадра/сек
Цветовое пространство : YUV
Субдискретизация насыщенности : 4:2:0
Битовая глубина : 8 бит
Тип развёртки : Прогрессивная
Метод сжатия : С потерями
Бит/(Пиксели*Кадры) : 0.257
Размер потока : 1000 Мбайт (71%)
Библиотека кодирования : XviD 1.2.1 (UTC 2008-12-04)
Аудио #1
Идентификатор : 1
Формат : MPEG Audio
Версия формата : Version 1
Профиль формата : Layer 3
Режим : Joint stereo
Идентификатор кодека : 55
Идентификатор кодека/Подсказка : MP3
Продолжительность : 1 ч. 18 м.
Вид битрейта : Постоянный
Битрейт : 320 Кбит/сек
Каналы : 2 канала
Частота : 48,0 КГц
Метод сжатия : С потерями
Размер потока : 180 Мбайт (13%)
Выравнивание : Соединение по промежуткам
Продолжительность промежутка : 42 мс. (1,00 видеокадр)
Время предзагрузки промежутка : 504 мс.
Аудио #2
Идентификатор : 2
Формат : AC-3
Формат/Информация : Audio Coding 3
Расширение режима : CM (complete main)
Параметр Endianness формата : Big
Идентификатор кодека : 2000
Продолжительность : 1 ч. 18 м.
Вид битрейта : Постоянный
Битрейт : 384 Кбит/сек
Каналы : 6 каналов
Расположение каналов : Front: L C R, Side: L R, LFE
Частота : 48,0 КГц
Метод сжатия : С потерями
Размер потока : 216 Мбайт (15%)
Выравнивание : Разделение по промежуткам
Продолжительность промежутка : 42 мс. (1,00 видеокадр)
Время предзагрузки промежутка : 500 мс.
Download / Скачать

Хотите скачать бесплатно? Зарегистрируйтесь на сайте (ссылка на регистрацию). Pirat.ca - самый быстрый торрент трекер в рунете!

Как скачивать  ·   Что такое торрент  ·   Рейтинг и ограничения

Jek@

Легенда

Пост 04-Авг-2015 16:43 (спустя 46 минут)

[Q] 

Спасибо!!! .
[Профиль]  [ЛС] 

SCRET

Корсар

Пост 09-Авг-2015 00:17 (спустя 4 дня)

[Q] 

Спасибо!!! Пиратка рулит!
[Профиль]  [ЛС] 

baltimor30

Морской Волк

Пост 10-Авг-2015 11:33 (спустя 1 день 11 часов)

[Q] 

Ребенок оценит !COOL!
[Профиль]  [ЛС] 

Pasha killer

Корсар

Пост 06-Сен-2015 00:55 (спустя 26 дней)

[Q] 

уже смотрел, мультфильм супер Автору респект!!!
[Профиль]  [ЛС] 

metampsy

Корсар

Пост 08-Сен-2015 01:38 (спустя 2 дня)

[Q] 

очередной высер...
[Профиль]  [ЛС] 

Пост 08-Сен-2015 14:33 (спустя 12 часов)

Топик был перенесен из форума Новинки (HD|DVD|BD| TV|SAT|PDTV| - Rips) в форум Зарубежные полнометражные мультфильмы
aleksey99
 
Показать сообщения:    
Ответить на тему

Текущее время: Сегодня 20:00

Часовой пояс: GMT + 4



Вы не можете начинать темы
Вы не можете отвечать на сообщения
Вы не можете редактировать свои сообщения
Вы не можете удалять свои сообщения
Вы не можете голосовать в опросах
Вы не можете прикреплять файлы к сообщениям
Вы не можете скачивать файлы

▼ Вниз