ML
     
  Уважаемый Гость!
Вы можете поддержать проект и зарегистрироваться у наших партнеров - онлайн-стратегия MyLands. При регистрации в игре Вы получите код, который сможете активировать после регистрации на pirat.ca и получить 1000 дублонов.

Ваш код:
b70663c760e7cd2521b8e123786cdd788200e3bd
 
     

Безграничный Бэтмен: Хаос / Batman Unlimited: Monster Mayhem (Батч Лукич / Butch Lukic) [2015 г., мультфильм, боевик, приключения, HDRip] MVO (iTunes) + Original (Eng)

Ответить на тему
 
Автор
Сообщение

Пост 11-Авг-2015 12:09

[Q] 

LPPI

-Безграничный Бэтмен: Хаос / Batman Unlimited: Monster Mayhem- Производство: США / DC Comics, DC Entertainment, Warner Bros. Animation
Год выпуска: 2015 г.
Жанр: мультфильм, боевик, приключения
Продолжительность: 01:20:12
Мировая премьера: 18 августа 2015-Перевод: Профессиональный (многоголосный, закадровый) [iTunes]
Оригинальный аудиопоток: английский-Режиссер: Батч Лукич / Butch Lukic
В ролях: Ноэль Фишер, Трой Бэйкер, Кари Вурер, Уилл Фридел, Крис Диамантополос, Хари Пэйтон, Роджер Крэйг Смит, Юрий Ловенталь, Брайан Т. Делани, Фред Татаскьор-Описание: Команда из Бэтмена, Найтвинга, Киборга и Зеленой Стрелы противостоит Соломону Гранди, Глиноликому, Страшиле и Серебряной Банши. Возглавит шайку негодяев, конечно же, Джокер.- -Качество видео: HDRip
Контейнер: AVI
Видео кодек: XviD
Аудио кодек: AC3
Видео: 720x400 (1.80:1), 23.976 fps, XviD build 50 ~2044 kbps avg, 0.30 bit/pixel
Аудио: Russian: 48 kHz, AC3 Dolby Digital, 2/0 (L,R) ch, ~192 kbps
Аудио #2: English: 48 kHz, AC3 Dolby Digital, 2/0 (L,R) ch, ~192 kbps
Cубтитры: отсутствуют-
General
Complete name : F:\Bezgrani4nyj.Betmen.Haoas.2015.P.HDRip.avi
Format : AVI
Format/Info : Audio Video Interleave
File size : 1.37 GiB
Duration : 1h 20mn
Overall bit rate : 2 444 Kbps
Writing application : VirtualDubMod 1.5.10.2 (build 2540/release)
Writing library : VirtualDubMod build 2540/release
Video
ID : 0
Format : MPEG-4 Visual
Format profile : Advanced [email protected]
Format settings, BVOP : 2
Format settings, QPel : No
Format settings, GMC : No warppoints
Format settings, Matrix : Default (MPEG)
Codec ID : XVID
Codec ID/Hint : XviD
Duration : 1h 20mn
Bit rate : 2 045 Kbps
Width : 720 pixels
Height : 400 pixels
Display aspect ratio : 16:9
Frame rate : 23.976 fps
Color space : YUV
Chroma subsampling : 4:2:0
Bit depth : 8 bits
Scan type : Progressive
Compression mode : Lossy
Bits/(Pixel*Frame) : 0.296
Stream size : 1.15 GiB (84%)
Writing library : XviD 1.2.1 (UTC 2008-12-04)
Audio #1
ID : 1
Format : AC-3
Format/Info : Audio Coding 3
Mode extension : CM (complete main)
Format settings, Endianness : Big
Codec ID : 2000
Duration : 1h 20mn
Bit rate mode : Constant
Bit rate : 192 Kbps
Channel(s) : 2 channels
Channel positions : Front: L R
Sampling rate : 48.0 KHz
Compression mode : Lossy
Stream size : 110 MiB (8%)
Alignment : Split accross interleaves
Interleave, duration : 42 ms (1.00 video frame)
Interleave, preload duratio : 500 ms
Audio #2
ID : 2
Format : AC-3
Format/Info : Audio Coding 3
Mode extension : CM (complete main)
Format settings, Endianness : Big
Codec ID : 2000
Duration : 1h 20mn
Bit rate mode : Constant
Bit rate : 192 Kbps
Channel(s) : 2 channels
Channel positions : Front: L R
Sampling rate : 48.0 KHz
Compression mode : Lossy
Stream size : 110 MiB (8%)
Alignment : Split accross interleaves
Interleave, duration : 42 ms (1.00 video frame)
Interleave, preload duratio : 500 ms
-Скриншоты:-- -
Download / Скачать

Хотите скачать бесплатно? Зарегистрируйтесь на сайте (ссылка на регистрацию). Pirat.ca - самый быстрый торрент трекер в рунете!

Как скачивать  ·   Что такое торрент  ·   Рейтинг и ограничения

spidercola86

3249

Пост 11-Авг-2015 12:24 (спустя 14 минут)

[Q] 

Хочется 1080р!, будет??
[Профиль]  [ЛС] 

bolin

Флибустьер

Пост 11-Авг-2015 23:48 (спустя 11 часов)

[Q] 

Забираю малышне! Лови бочку
[Профиль]  [ЛС] 

OLEG_PS2009

Флибустьер

Пост 20-Авг-2015 08:56 (спустя 8 дней)

[Q] 

Буду смотреть.
[Профиль]  [ЛС] 

SCRET

Корсар

Пост 21-Авг-2015 18:44 (спустя 1 день 9 часов)

[Q] 

Спасибо!!! Пиратка рулит!
На форуме  [Профиль]  [ЛС] 

vasia1381728

Морской Волк

3

Пост 24-Авг-2015 16:47 (спустя 2 дня 22 часа)

[Q] 

Лови бочку
[Профиль]  [ЛС] 

the_lame

Корсар

Пост 27-Авг-2015 08:39 (спустя 2 дня 15 часов)

[Q] 

Спасибо! Старшенький заценит.
[Профиль]  [ЛС] 

Пост 11-Сен-2015 22:49 (спустя 15 дней)

Топик был перенесен из форума Новинки (HD|DVD|BD| TV|SAT|PDTV| - Rips) в форум Зарубежные полнометражные мультфильмы
aleksey99
 
Показать сообщения:    
Ответить на тему

Текущее время: Сегодня 00:19

Часовой пояс: GMT + 4



Вы не можете начинать темы
Вы не можете отвечать на сообщения
Вы не можете редактировать свои сообщения
Вы не можете удалять свои сообщения
Вы не можете голосовать в опросах
Вы не можете прикреплять файлы к сообщениям
Вы не можете скачивать файлы

▼ Вниз