ML
     
  Уважаемый Гость!
Вы можете поддержать проект и зарегистрироваться у наших партнеров - онлайн-стратегия MyLands. При регистрации в игре Вы получите код, который сможете активировать после регистрации на pirat.ca и получить 1000 дублонов.

Ваш код:
ee1288b6f7c09d9d2cb2a0f972aba30460ce9333
 
     

Кокоша – маленький дракон / Der kleine Drache Kokosnuss (Хьюберт Вейланд, Нина Велс / Hubert Weiland, Nina Wels) [2014 г., мультфильм, детский, HDRip] Dub (Чистый звук) + Original (Ger)

Ответить на тему
 
Автор
Сообщение

Пост 08-Сен-2015 21:30

[Q] 

aleksey99

--Кокоша – маленький дракон / Der kleine Drache Kokosnuss-- -Производство: Германия, Caligari Film- und Fernsehproduktions GmbH, Universum Film (UFA), Virgin Lands Animated Pictures
Год выпуска: 2014 г.
Жанр: мультфильм, детский
Продолжительность: 01:22:37--Мировая премьера: 18 декабря 2014
Российская премьера: 30 июля 2015, «Cinema Prestige»--Перевод: Профессиональный (полное дублирование) [Чистый звук]
Оригинальный аудиопоток: немецкий--Режиссер: Хьюберт Вейланд, Нина Велс / Hubert Weiland, Nina Wels--В ролях: Каролин Кебекус, Клаудия Михельсен, Дастин Земмельрогге, Макс фон Гробен--Описание: Дракончик Кокоша и его друг, дракончик Оскар, жили на Острове Драконов. Были они не такими, как все. Кокоша очень хотел стать летающим драконом, но летать у него не получалось. А Оскар, хищник по рождению, был убежденным вегетарианцем. Однажды вместе со своей подружкой, дикобразихой Матильдой, они решили отправиться в рискованное путешествие…-- --Качество видео: HDRip
Контейнер: AVI
Видео кодек: XviD
Аудио кодек: AC3
Видео: 720x400 (1.80:1), 24.000 fps, XviD build 50 ~1974 kbps avg, 0.28 bit/pixel
Аудио 1: 48 kHz, AC3 Dolby Digital, 2/0 (L,R) ch, ~192 kbps RUS
Аудио 2: 48 kHz, AC3 Dolby Digital, 2/0 (L,R) ch, ~192 kbps GER
Cубтитры: отсутствуют.
Общее
Полное имя : F:\Torent 2\K0k0sha.m4l3njkij.dr4k0n.2014.D.HDRip.1.46GB.avi
Формат : AVI
Формат/Информация : Audio Video Interleave
Размер файла : 1,37 Гбайт
Продолжительность : 1 ч. 22 м.
Общий поток : 2373 Кбит/сек
Программа кодирования : VirtualDubMod 1.5.10.2 (build 2540/release)
Библиотека кодирования : VirtualDubMod build 2540/release
Видео
Идентификатор : 0
Формат : MPEG-4 Visual
Профиль формата : Advanced [email protected]
Параметр BVOP формата : 2
Параметр QPel формата : Нет
Параметр GMC формата : Без точки перехода
Параметр матрицы формата : Default (MPEG)
Идентификатор кодека : XVID
Идентификатор кодека/Подсказка : XviD
Продолжительность : 1 ч. 22 м.
Битрейт : 1975 Кбит/сек
Ширина : 720 пикселей
Высота : 400 пикселей
Соотношение сторон : 16:9
Частота кадров : 24,000 кадра/сек
Цветовое пространство : YUV
Субдискретизация насыщенности : 4:2:0
Битовая глубина : 8 бит
Тип развёртки : Прогрессивная
Метод сжатия : С потерями
Бит/(Пиксели*Кадры) : 0.286
Размер потока : 1,14 Гбайт (83%)
Библиотека кодирования : XviD 1.2.1 (UTC 2008-12-04)
Аудио #1
Идентификатор : 1
Формат : AC-3
Формат/Информация : Audio Coding 3
Расширение режима : CM (complete main)
Параметр Endianness формата : Big
Идентификатор кодека : 2000
Продолжительность : 1 ч. 22 м.
Вид битрейта : Постоянный
Битрейт : 192 Кбит/сек
Каналы : 2 канала
Расположение каналов : Front: L R
Частота : 48,0 КГц
Метод сжатия : С потерями
Размер потока : 113 Мбайт (8%)
Выравнивание : Разделение по промежуткам
Продолжительность промежутка : 42 мс. (1,00 видеокадр)
Время предзагрузки промежутка : 500 мс.
Аудио #2
Идентификатор : 2
Формат : AC-3
Формат/Информация : Audio Coding 3
Расширение режима : CM (complete main)
Параметр Endianness формата : Big
Идентификатор кодека : 2000
Продолжительность : 1 ч. 22 м.
Вид битрейта : Постоянный
Битрейт : 192 Кбит/сек
Каналы : 2 канала
Расположение каналов : Front: L R
Частота : 48,0 КГц
Метод сжатия : С потерями
Размер потока : 113 Мбайт (8%)
Выравнивание : Разделение по промежуткам
Продолжительность промежутка : 42 мс. (1,00 видеокадр)
Время предзагрузки промежутка : 500 мс.
Трейлер
Download / Скачать

Хотите скачать бесплатно? Зарегистрируйтесь на сайте (ссылка на регистрацию). Pirat.ca - самый быстрый торрент трекер в рунете!

Как скачивать  ·   Что такое торрент  ·   Рейтинг и ограничения

Sanya124

Морской Волк

13

Пост 08-Сен-2015 21:59 (спустя 29 минут)

[Q] 

Возьму для ребёнка Раздающему респект!
[Профиль]  [ЛС] 

alexx2201

33

Пост 09-Сен-2015 00:57 (спустя 2 часа 57 минут)

[Q] 

701123Возьму для ребёнка Раздающему респект!
Лови бочку

_________________
Отпуск...внезапно
[Профиль]  [ЛС] 

Apostle358

Корсар

151

Пост 09-Сен-2015 05:20 (спустя 4 часа)

[Q] 

Стоит смотреть этих чудищ ребенку?
[Профиль]  [ЛС] 

bolin

Флибустьер

Пост 09-Сен-2015 20:17 (спустя 14 часов)

[Q] 

Забираю своим мальчикам!!! Лови бочку
[Профиль]  [ЛС] 

zlotosalien

Флибустьер

Пост 09-Сен-2015 22:43 (спустя 2 часа 26 минут)

[Q] 

Такую хрень даже ребенок не одобрил! Я вообще тщательно выбираю что показывать ребенку. Но, решил попробовать показать этот мультик...как я и думал...дочка минут пят осилила и попросила выключить)
[Профиль]  [ЛС] 

Pasha killer

Корсар

Пост 11-Сен-2015 13:28 (спустя 1 день 14 часов)

[Q] 

Я наверное воздержусь от просмотра, но всеровно Спасибо!!! На любителя
[Профиль]  [ЛС] 

Пост 15-Окт-2015 08:21 (спустя 1 месяц 3 дня)

Топик был перенесен из форума Новинки (HD|DVD|BD| TV|SAT|PDTV| - Rips) в форум Зарубежные полнометражные мультфильмы
aleksey99
 
Показать сообщения:    
Ответить на тему

Текущее время: Сегодня 18:20

Часовой пояс: GMT + 4



Вы не можете начинать темы
Вы не можете отвечать на сообщения
Вы не можете редактировать свои сообщения
Вы не можете удалять свои сообщения
Вы не можете голосовать в опросах
Вы не можете прикреплять файлы к сообщениям
Вы не можете скачивать файлы

▼ Вниз