ML
     
  Уважаемый Гость!
Вы можете поддержать проект и зарегистрироваться у наших партнеров - онлайн-стратегия MyLands. При регистрации в игре Вы получите код, который сможете активировать после регистрации на pirat.ca и получить 1000 дублонов.

Ваш код:
5f4e94775bc0501caff7b254e79328d304c817d9
 
     

Спасатели / Saving Goola (Карл Тордж / Karl Toerge) [2014 г., мультфильм, WEB-DLRip] Dub (iTunes)

Ответить на тему
 
Автор
Сообщение

Пост 11-Сен-2015 13:31

[Q] 

aleksey99

--Спасатели / Saving Goola--«Они всегда идут в обход»-- -Производство: Китай, Sparky Animation Studio, VJ Animation
Год выпуска: 2014 г.
Жанр: мультфильм
Продолжительность: 01:20:39--Мировая премьера: 13 августа 2015
Российская премьера: 6 августа 2015, «Люксор»--Перевод: Профессиональный (полное дублирование) [iTunes]--Режиссер: Карл Тордж / Karl Toerge--Описание: Невероятной красоты тропический остров Гула находится в опасности: механизм, который держит остров парящим в воздухе сломан, и Гула вот-вот уйдет под воду! Харизматичным и обаятельным, но далеким от подвигов героям волей-неволей придется спасать свой остров и всех его жителей. Ироничные, веселые и безбашенные персонажи проявят настоящие чудеса храбрости, сплотившись перед лицом смертельной опасности и проявив свои лучшие качества: отчаянность, неутомимость и готовность помочь друг другу. Какие трудности им придется преодолеть и какой выход они найдут из непростой ситуации?-- --Качество видео: WEB-DLRip
Контейнер: AVI
Видео кодек: XviD
Аудио кодек: AC3
Видео: 720x400 (1.80:1), 24 fps, XviD build 50 ~2032 kbps avg, 0.29 bit/pixel
Аудио: 48 kHz, AC3 Dolby Digital, 3/2 (L,C,R,l,r) + LFE ch, ~384 kbps
Cубтитры: отсутствуют.
Общее
Полное имя : F:\Torent 2\7pasa3eli.2014.D.WEB-DLRip.avi
Формат : AVI
Формат/Информация : Audio Video Interleave
Размер файла : 1,37 Гбайт
Продолжительность : 1 ч. 20 м.
Общий поток : 2426 Кбит/сек
Программа кодирования : VirtualDubMod 1.5.10.3 | www.virtualdub-fr.org || (build 2550/release)
Библиотека кодирования : VirtualDubMod build 2550/release
Видео
Идентификатор : 0
Формат : MPEG-4 Visual
Профиль формата : Advanced [email protected]
Параметр BVOP формата : 2
Параметр QPel формата : Нет
Параметр GMC формата : Без точки перехода
Параметр матрицы формата : Default (MPEG)
Идентификатор кодека : XVID
Идентификатор кодека/Подсказка : XviD
Продолжительность : 1 ч. 20 м.
Битрейт : 2033 Кбит/сек
Ширина : 720 пикселей
Высота : 400 пикселей
Соотношение сторон : 16:9
Частота кадров : 24,000 кадра/сек
Цветовое пространство : YUV
Субдискретизация насыщенности : 4:2:0
Битовая глубина : 8 бит
Тип развёртки : Прогрессивная
Метод сжатия : С потерями
Бит/(Пиксели*Кадры) : 0.294
Размер потока : 1,15 Гбайт (84%)
Библиотека кодирования : XviD 1.2.1 (UTC 2008-12-04)
Аудио
Идентификатор : 1
Формат : AC-3
Формат/Информация : Audio Coding 3
Расширение режима : CM (complete main)
Параметр Endianness формата : Big
Идентификатор кодека : 2000
Продолжительность : 1 ч. 20 м.
Вид битрейта : Постоянный
Битрейт : 384 Кбит/сек
Каналы : 6 каналов
Расположение каналов : Front: L C R, Side: L R, LFE
Частота : 48,0 КГц
Метод сжатия : С потерями
Размер потока : 222 Мбайт (16%)
Выравнивание : Разделение по промежуткам
Продолжительность промежутка : 42 мс. (1,00 видеокадр)
Время предзагрузки промежутка : 500 мс.
Трейлер
Download / Скачать

Хотите скачать бесплатно? Зарегистрируйтесь на сайте (ссылка на регистрацию). Pirat.ca - самый быстрый торрент трекер в рунете!

Как скачивать  ·   Что такое торрент  ·   Рейтинг и ограничения

cumberlady

Морской Волк

Пост 12-Сен-2015 21:43 (спустя 1 день 8 часов)

[Q] 

Спасибо, что-то новенькое) Автору респект!!!
[Профиль]  [ЛС] 

baltimor30

Морской Волк

Пост 13-Сен-2015 12:24 (спустя 14 часов)

[Q] 

Благодарю, ребенок оценит
[Профиль]  [ЛС] 

Пост 15-Окт-2015 08:23 (спустя 1 месяц 1 день)

Топик был перенесен из форума Новинки (HD|DVD|BD| TV|SAT|PDTV| - Rips) в форум Зарубежные полнометражные мультфильмы
aleksey99
 
Показать сообщения:    
Ответить на тему

Текущее время: Сегодня 15:32

Часовой пояс: GMT + 4



Вы не можете начинать темы
Вы не можете отвечать на сообщения
Вы не можете редактировать свои сообщения
Вы не можете удалять свои сообщения
Вы не можете голосовать в опросах
Вы не можете прикреплять файлы к сообщениям
Вы не можете скачивать файлы

▼ Вниз