ML
     
  Уважаемый Гость!
Вы можете поддержать проект и зарегистрироваться у наших партнеров - онлайн-стратегия MyLands. При регистрации в игре Вы получите код, который сможете активировать после регистрации на pirat.ca и получить 1000 дублонов.

Ваш код:
0ea1bf889af42fca5f67d0a391efb3400850ad7c
 
     

Песнь моря / Song of the Sea (Томм Мур / Tomm Moore) [2014 г., мультфильм, фэнтези, семейный, HDRip] Dub [iTunes]

Ответить на тему
 
Автор
Сообщение

Пост 27-Сен-2015 10:03

[Q] 

aleksey99

--Песнь моря / Song of the Sea-- -Производство: Ирландия, Дания, Бельгия, Люксембург, Франция, Big Farm, Cartoon Saloon, Digital Graphics
Год выпуска: 2014 г.
Жанр: мультфильм, фэнтези, семейный
Продолжительность: 01:33:59--Мировая премьера: 6 сентября 2014
Российская премьера: 27 августа 2015, «Премиум Фильм»--Перевод: Профессиональный (полное дублирование) [iTunes]--Режиссер: Томм Мур / Tomm Moore--В ролях: Брендан Глисон, Финола Флэнаган, Пэт Шорт, Дэвид Роул, Лиза Хэннигэн, Джон Кенни--Описание: Невероятная история Бена и его сестренки Сирши. Вместе они пускаются в фантастическое путешествие сквозь исчезающий мир древних легенд и магии, пытаясь вернуться домой.-- --Качество видео: HDRip
Контейнер: AVI
Видео кодек: XviD
Аудио кодек: AC3
Видео: 720x384 (1.88:1), 23.976 fps, XviD build 50 ~1822 kbps avg, 0.28 bit/pixel
Аудио: 48 kHz, AC3 Dolby Digital, 3/2 (L,C,R,l,r) + LFE ch, ~384 kbps
Cубтитры: отсутствуют.
Общее
Полное имя : F:\Torent 2\pECH1a.M0P1a.2O14.D.HDRip.1.46Gb.avi
Формат : AVI
Формат/Информация : Audio Video Interleave
Размер файла : 1,45 Гбайт
Продолжительность : 1 ч. 33 м.
Общий поток : 2216 Кбит/сек
Программа кодирования : VirtualDubMod 1.5.10.3 | www.virtualdub-fr.org || (build 2550/release)
Библиотека кодирования : VirtualDubMod build 2550/release
Видео
Идентификатор : 0
Формат : MPEG-4 Visual
Профиль формата : Advanced [email protected]
Параметр BVOP формата : 2
Параметр QPel формата : Нет
Параметр GMC формата : Без точки перехода
Параметр матрицы формата : Default (MPEG)
Идентификатор кодека : XVID
Идентификатор кодека/Подсказка : XviD
Продолжительность : 1 ч. 33 м.
Битрейт : 1823 Кбит/сек
Ширина : 720 пикселей
Высота : 384 пикселя
Соотношение сторон : 1,85:1
Частота кадров : 23,976 кадра/сек
Цветовое пространство : YUV
Субдискретизация насыщенности : 4:2:0
Битовая глубина : 8 бит
Тип развёртки : Прогрессивная
Метод сжатия : С потерями
Бит/(Пиксели*Кадры) : 0.275
Размер потока : 1,20 Гбайт (82%)
Библиотека кодирования : XviD 1.2.1 (UTC 2008-12-04)
Аудио
Идентификатор : 1
Формат : AC-3
Формат/Информация : Audio Coding 3
Расширение режима : CM (complete main)
Параметр Endianness формата : Big
Идентификатор кодека : 2000
Продолжительность : 1 ч. 33 м.
Вид битрейта : Постоянный
Битрейт : 384 Кбит/сек
Каналы : 6 каналов
Расположение каналов : Front: L C R, Side: L R, LFE
Частота : 48,0 КГц
Метод сжатия : С потерями
Размер потока : 258 Мбайт (17%)
Выравнивание : Разделение по промежуткам
Продолжительность промежутка : 42 мс. (1,00 видеокадр)
Время предзагрузки промежутка : 500 мс.
Трейлер
Download / Скачать

Хотите скачать бесплатно? Зарегистрируйтесь на сайте (ссылка на регистрацию). Pirat.ca - самый быстрый торрент трекер в рунете!

Как скачивать  ·   Что такое торрент  ·   Рейтинг и ограничения

platon18

Гроза морей

Пост 28-Окт-2015 15:48 (спустя 1 месяц 1 день)

[Q] 

чет скрины не открываются
[Профиль]  [ЛС] 

zlotosalien

Флибустьер

Пост 28-Окт-2015 19:48 (спустя 4 часа)

[Q] 

711220чет скрины не открываются
Поддерживаю.
[Профиль]  [ЛС] 

Полтос

Флибустьер

Пост 28-Окт-2015 22:44 (спустя 2 часа 56 минут)

[Q] 

Обалденный мультик, выполненный в лучших советских традициях. Кто не смотрел - к просмотру обязательно!)
Качают ВСЕ!!!

_________________
Первый закон Прапорщика: Всё что поднимаемо - относительно!)
[Профиль]  [ЛС] 

Мишки

Морской Волк

Пост 29-Окт-2015 03:17 (спустя 4 часа)

[Q] 

Доче очень понравился

_________________
Это всего лишь игра, настройся на волну позитива!:)
[Профиль]  [ЛС] 

platon18

Гроза морей

Пост 29-Окт-2015 09:53 (спустя 6 часов)

[Q] 

711324Обалденный мультик, выполненный в лучших советских традициях. Кто не смотрел - к просмотру обязательно!)
Качают ВСЕ!!!
Ирландия, Дания, Бельгия, Люксембург, Франция- советские традиции bj
[Профиль]  [ЛС] 

Полтос

Флибустьер

Пост 30-Окт-2015 22:55 (спустя 1 день 13 часов)

[Q] 

711436
711324Обалденный мультик, выполненный в лучших советских традициях. Кто не смотрел - к просмотру обязательно!)
Качают ВСЕ!!!
Ирландия, Дания, Бельгия, Люксембург, Франция- советские традиции bj
Ты сначала мультик посмотри, потом поймёшь!)

_________________
Первый закон Прапорщика: Всё что поднимаемо - относительно!)
[Профиль]  [ЛС] 

Пост 04-Ноя-2015 10:28 (спустя 4 дня)

Топик был перенесен из форума Новинки (HD|DVD|BD| TV|SAT|PDTV| - Rips) в форум Зарубежные полнометражные мультфильмы
aleksey99
 

zlotosalien

Флибустьер

Пост 08-Ноя-2015 00:30 (спустя 8 дней)

[Q] 

711324Обалденный мультик, выполненный в лучших советских традициях. Кто не смотрел - к просмотру обязательно!)
Качают ВСЕ!!!
В упор никаких Советских традиций не увидел! Именно что Датский, Ирландский и Бельгийский колорит и дух. Даже рисовка совсем не похожа.
[Профиль]  [ЛС] 
Показать сообщения:    
Ответить на тему

Текущее время: Сегодня 00:39

Часовой пояс: GMT + 4



Вы не можете начинать темы
Вы не можете отвечать на сообщения
Вы не можете редактировать свои сообщения
Вы не можете удалять свои сообщения
Вы не можете голосовать в опросах
Вы не можете прикреплять файлы к сообщениям
Вы не можете скачивать файлы

▼ Вниз