ML
     
  Уважаемый Гость!
Вы можете поддержать проект и зарегистрироваться у наших партнеров - онлайн-стратегия MyLands. При регистрации в игре Вы получите код, который сможете активировать после регистрации на pirat.ca и получить 1000 дублонов.

Ваш код:
822959f93c00d34653763d5bbf9ee9a7134af98a
 
     

Барби: Рок-принцесса / Barbie in Rock 'N Royals (Карен Дж. Ллойд / Karen J. Lloyd) [2015 г., мультфильм, семейный, WEB-DLRip] Dub [Чистый звук] + Original (Eng)

Ответить на тему
 
Автор
Сообщение

Пост 01-Окт-2015 14:55

[Q] 

aleksey99

--Барби: Рок-принцесса / Barbie in Rock 'N Royals-- Производство: США / Universal Studios
Год выпуска: 2015 г.
Жанр: мультфильм, семейный
Продолжительность: 01:23:42--Мировая премьера: 14 августа 2015--Перевод: Профессиональный (полное дублирование) [Чистый звук]
Оригинальный аудиопоток: английский--Режиссер: Карен Дж. Ллойд / Karen J. Lloyd--В ролях: Келли Шеридан, Кьяра Дзанни, Бетани Браун, Девин Далтон, Майкл Добсон, Брианна Драммонд, Рэйчел Харрисон, Алессандро Джулиани, Питер Келамис, Омари Ньютон--Описание: Жизнь принцессы Кортни переворачивается с ног на голову, когда она меняется местами со знаменитой рок-певицей Эрикой. При отправлении в летний лагерь случается организационная путаница, и принцессу Кортни отправляют в лагерь для поп-певиц, а Эрику — в королевский лагерь. Пока начальники лагерей пытаются устранить беспорядок, Эрика и Кортни приспосабливаются к новой для себя среде и развлекаются, заводя новых друзей. А когда девушки узнают, что из-за враждующих боссов оба лагеря могут закрыть, они решают объединить свои таланты, чтобы выступить с уникальным музыкальным номером.-- --Качество видео: WEB-DLRip
Контейнер: AVI
Видео кодек: XviD
Аудио кодек: AC3
Видео: 720x400 (1.80:1), 23.976 fps, XviD build 50 ~1946 kbps avg, 0.28 bit/pixel
Аудио 1: 48 kHz, AC3 Dolby Digital, 2/0 (L,R) ch, ~192 kbps RUS
Аудио 2: 48 kHz, AC3 Dolby Digital, 2/0 (L,R) ch, ~192 kbps ENG
Cубтитры: Отсутствуют
Общее
Полное имя : D:\Torrent2\Barbi.rok.princessa.2015.D.WEBDLRip.avi
Формат : AVI
Формат/Информация : Audio Video Interleave
Размер файла : 1,37 Гбайт
Продолжительность : 1 ч. 23 м.
Общий поток : 2343 Кбит/сек
Программа кодирования : VirtualDubMod 1.5.10.2 (build 2540/release)
Библиотека кодирования : VirtualDubMod build 2540/release
Видео
Идентификатор : 0
Формат : MPEG-4 Visual
Профиль формата : Advanced [email protected]
Параметр BVOP формата : 2
Параметр QPel формата : Нет
Параметр GMC формата : Без точки перехода
Параметр матрицы формата : Default (MPEG)
Идентификатор кодека : XVID
Идентификатор кодека/Подсказка : XviD
Продолжительность : 1 ч. 23 м.
Битрейт : 1947 Кбит/сек
Ширина : 720 пикселей
Высота : 400 пикселей
Соотношение сторон : 16:9
Частота кадров : 23,976 кадра/сек
Цветовое пространство : YUV
Субдискретизация насыщенности : 4:2:0
Битовая глубина : 8 бит
Тип развёртки : Прогрессивная
Метод сжатия : С потерями
Бит/(Пиксели*Кадры) : 0.282
Размер потока : 1,14 Гбайт (83%)
Библиотека кодирования : XviD 1.2.1 (UTC 2008-12-04)
Аудио #1
Идентификатор : 1
Формат : AC-3
Формат/Информация : Audio Coding 3
Расширение режима : CM (complete main)
Параметр Endianness формата : Big
Идентификатор кодека : 2000
Продолжительность : 1 ч. 23 м.
Вид битрейта : Постоянный
Битрейт : 192 Кбит/сек
Каналы : 2 канала
Расположение каналов : Front: L R
Частота : 48,0 КГц
Метод сжатия : С потерями
Размер потока : 114 Мбайт (8%)
Выравнивание : Разделение по промежуткам
Продолжительность промежутка : 42 мс. (1,01 видеокадр)
Время предзагрузки промежутка : 500 мс.
Аудио #2
Идентификатор : 2
Формат : AC-3
Формат/Информация : Audio Coding 3
Расширение режима : CM (complete main)
Параметр Endianness формата : Big
Идентификатор кодека : 2000
Продолжительность : 1 ч. 23 м.
Вид битрейта : Постоянный
Битрейт : 192 Кбит/сек
Каналы : 2 канала
Расположение каналов : Front: L R
Частота : 48,0 КГц
Метод сжатия : С потерями
Размер потока : 114 Мбайт (8%)
Выравнивание : Разделение по промежуткам
Продолжительность промежутка : 42 мс. (1,01 видеокадр)
Время предзагрузки промежутка : 500 мс.
Трейлер
Download / Скачать

Хотите скачать бесплатно? Зарегистрируйтесь на сайте (ссылка на регистрацию). Pirat.ca - самый быстрый торрент трекер в рунете!

Как скачивать  ·   Что такое торрент  ·   Рейтинг и ограничения

Jek@

Легенда

Пост 01-Окт-2015 15:33 (спустя 37 минут)

[Q] 

Спасибо!!! .
[Профиль]  [ЛС] 

EDVAR

Легенда

Пост 01-Окт-2015 16:39 (спустя 1 час 5 минут)

[Q] 

Благодарю!!!

_________________
"Как других судить-вы судьи.Как себя-вы адвокаты"
[Профиль]  [ЛС] 

Alex Yz

Гроза морей

Пост 08-Окт-2015 21:43 (спустя 7 дней)

[Q] 

Спасибо! Доча будет довольна!
[Профиль]  [ЛС] 

platon18

Гроза морей

Пост 28-Окт-2015 15:57 (спустя 19 дней)

[Q] 

это типа дом2?все никак муть про Барби не могут оставить?
[Профиль]  [ЛС] 

Пост 04-Ноя-2015 10:32 (спустя 6 дней)

Топик был перенесен из форума Новинки (HD|DVD|BD| TV|SAT|PDTV| - Rips) в форум Зарубежные полнометражные мультфильмы
aleksey99
 
Показать сообщения:    
Ответить на тему

Текущее время: Сегодня 05:54

Часовой пояс: GMT + 4



Вы не можете начинать темы
Вы не можете отвечать на сообщения
Вы не можете редактировать свои сообщения
Вы не можете удалять свои сообщения
Вы не можете голосовать в опросах
Вы не можете прикреплять файлы к сообщениям
Вы не можете скачивать файлы

▼ Вниз