ML
     
  Уважаемый Гость!
Вы можете поддержать проект и зарегистрироваться у наших партнеров - онлайн-стратегия MyLands. При регистрации в игре Вы получите код, который сможете активировать после регистрации на pirat.ca и получить 1000 дублонов.

Ваш код:
a978488e62322cd72e113ab723b8a7fdc10eb9b9
 
     

Любопытный Джордж 3 / Curious George 3: Back to the Jungle (Фил Вайнштейн / Phil Weinstein) [2015 г., мультфильм, семейный, HDRip] Dub [Чистый звук] + Original (Eng)

Ответить на тему
 
Автор
Сообщение

Пост 02-Окт-2015 17:11

[Q] 

aleksey99

--Любопытный Джордж 3 / Curious George 3: Back to the Jungle-- Производство: США / Imagine Entertainment, Universal 1440 Entertainment, WGBH Boston
Год выпуска: 2015 г.
Жанр: мультфильм, семейный
Продолжительность: 01:20:30--Мировая премьера: 23 июня 2015--Перевод: Профессиональный (полное дублирование) [Чистый звук]
Оригинальный аудиопоток: английский--Режиссер: Фил Вайнштейн / Phil Weinstein--В ролях: Анджела Бассетт, Джефф Беннетт, Джон Гудман, Александр Полински, Фрэнк Уэлкер--Описание: Полнометражный мультфильм, созданный по мотивам книги Ханса Аугусто Рея и Маргрет Рей, о приключениях маленькой, очень умной и очень любопытной обезьянки по имени Джордж, которая никогда не сидит на месте. Когда-то сотрудник музея древностей по имени Тед отправился в южноафриканские джунгли на поиски магического артефакта, встретил там Джорджа, и с тех пор человек и обезьянка стали неразлучными друзьями. В один прекрасный день в музей, где работает Тед, приходят представители Всемирного Космического Агентства. Они предлагают Джорджу совершить полет в космос с благородной целью – он должен спасти свою родину, джунгли.-- --Качество видео: HDRip
Контейнер: AVI
Видео кодек: XviD
Аудио кодек: AC3
Видео: 720x400 (1.80:1), 23.976 fps, XviD build 50 ~2037 kbps avg, 0.29 bit/pixel
Аудио 1: 48 kHz, AC3 Dolby Digital, 2/0 (L,R) ch, ~192 kbps RUS
Аудио 2: 48 kHz, AC3 Dolby Digital, 2/0 (L,R) ch, ~192 kbps ENG
Cубтитры: Отсутствуют
Общее
Полное имя : D:\Torrent2\Lubopytnyj_Dzhordzh.3.2015.D.HDRp.avi
Формат : AVI
Формат/Информация : Audio Video Interleave
Размер файла : 1,37 Гбайт
Продолжительность : 1 ч. 20 м.
Общий поток : 2435 Кбит/сек
Программа кодирования : VirtualDubMod 1.5.10.2 (build 2540/release)
Библиотека кодирования : VirtualDubMod build 2540/release
Видео
Идентификатор : 0
Формат : MPEG-4 Visual
Профиль формата : Advanced [email protected]
Параметр BVOP формата : 2
Параметр QPel формата : Нет
Параметр GMC формата : Без точки перехода
Параметр матрицы формата : Default (MPEG)
Идентификатор кодека : XVID
Идентификатор кодека/Подсказка : XviD
Продолжительность : 1 ч. 20 м.
Битрейт : 2037 Кбит/сек
Ширина : 720 пикселей
Высота : 400 пикселей
Соотношение сторон : 16:9
Частота кадров : 23,976 кадра/сек
Цветовое пространство : YUV
Субдискретизация насыщенности : 4:2:0
Битовая глубина : 8 бит
Тип развёртки : Прогрессивная
Метод сжатия : С потерями
Бит/(Пиксели*Кадры) : 0.295
Размер потока : 1,15 Гбайт (84%)
Библиотека кодирования : XviD 1.2.1 (UTC 2008-12-04)
Аудио #1
Идентификатор : 1
Формат : AC-3
Формат/Информация : Audio Coding 3
Расширение режима : CM (complete main)
Параметр Endianness формата : Big
Идентификатор кодека : 2000
Продолжительность : 1 ч. 20 м.
Вид битрейта : Постоянный
Битрейт : 192 Кбит/сек
Каналы : 2 канала
Расположение каналов : Front: L R
Частота : 48,0 КГц
Метод сжатия : С потерями
Размер потока : 111 Мбайт (8%)
Выравнивание : Разделение по промежуткам
Продолжительность промежутка : 42 мс. (1,00 видеокадр)
Время предзагрузки промежутка : 500 мс.
Аудио #2
Идентификатор : 2
Формат : AC-3
Формат/Информация : Audio Coding 3
Расширение режима : CM (complete main)
Параметр Endianness формата : Big
Идентификатор кодека : 2000
Продолжительность : 1 ч. 20 м.
Вид битрейта : Постоянный
Битрейт : 192 Кбит/сек
Каналы : 2 канала
Расположение каналов : Front: L R
Частота : 48,0 КГц
Метод сжатия : С потерями
Размер потока : 111 Мбайт (8%)
Выравнивание : Разделение по промежуткам
Продолжительность промежутка : 42 мс. (1,00 видеокадр)
Время предзагрузки промежутка : 500 мс.
Трейлер
Download / Скачать

Хотите скачать бесплатно? Зарегистрируйтесь на сайте (ссылка на регистрацию). Pirat.ca - самый быстрый торрент трекер в рунете!

Как скачивать  ·   Что такое торрент  ·   Рейтинг и ограничения



Последний раз редактировалось: aleksey99 (2015-11-04 10:31), всего редактировалось 1 раз

Sanya124

Морской Волк

13

Пост 02-Окт-2015 19:49 (спустя 2 часа 38 минут)

[Q] 

Посмотрим :)))
Автору спасибо! ;)
[Профиль]  [ЛС] 

avn2015

Корсар

Пост 04-Окт-2015 12:35 (спустя 1 день 16 часов)

[Q] 

спасибо! Спасибо!!!
[Профиль]  [ЛС] 

platon18

Гроза морей

Пост 28-Окт-2015 15:50 (спустя 24 дня)

[Q] 

ну как? муть?
[Профиль]  [ЛС] 

Depressor

Флибустьер

Пост 31-Окт-2015 01:23 (спустя 2 дня 9 часов)

[Q] 

напоминает сюжет из планеты обезьян))

_________________
[Профиль]  [ЛС] 

Пост 04-Ноя-2015 10:31 (спустя 4 дня)

Топик был перенесен из форума Новинки (HD|DVD|BD| TV|SAT|PDTV| - Rips) в форум Зарубежные полнометражные мультфильмы
aleksey99
 
Показать сообщения:    
Ответить на тему

Текущее время: Сегодня 22:05

Часовой пояс: GMT + 4



Вы не можете начинать темы
Вы не можете отвечать на сообщения
Вы не можете редактировать свои сообщения
Вы не можете удалять свои сообщения
Вы не можете голосовать в опросах
Вы не можете прикреплять файлы к сообщениям
Вы не можете скачивать файлы

▼ Вниз