ML
     
  Уважаемый Гость!
Вы можете поддержать проект и зарегистрироваться у наших партнеров - онлайн-стратегия MyLands. При регистрации в игре Вы получите код, который сможете активировать после регистрации на pirat.ca и получить 1000 дублонов.

Ваш код:
f612af22ea70acf5cbe90707ac5a076d215f8f7f
 
     

Апостол / O Apóstolo (Фернандо Кортисо / Fernando Cortizo) [2012 г., мультфильм, ужасы, WEB-DLRip] Dub [Чистый звук]

Ответить на тему
 
Автор
Сообщение

Пост 02-Окт-2015 21:07

[Q] 

aleksey99

--Апостол / O Apóstolo-- Производство: Испания, Artefacto producciones, Audiovisual Aval SGR, EFG-Renascence Productions, Igape
Год выпуска: 2012 г.
Жанр: мультфильм, ужасы
Продолжительность: 01:21:07--Мировая премьера: 27 апреля 2012
Российская премьера: 1 октября 2015, «Русский Репортаж»--Перевод: Профессиональный (полное дублирование) [Чистый звук]--Режиссер: Фернандо Кортисо / Fernando Cortizo--В ролях: Карлос Бланко, Хосе Мануэль Ольвейра «Пико», Пол Нэши, Хорхе Санс, Сельсо Бугальо, Джеральдин Чаплин, Мануэль Манкинья, Луис Тосар, Педро Алонсо, Изабель Бланко--Описание: Преступник, сбежавший из тюрьмы, добирается до отдаленной деревни, чтобы забрать награбленное добро. Однако, то, что он находит, сулит ему несчастья намного более серьезные, чем те, которые он пережил.-- --Качество видео: WEB-DLRip
Контейнер: AVI
Видео кодек: XviD
Аудио кодек: AC3
Видео: 720x384 (1.88:1), 25 fps, XviD build 50 ~1954 kbps avg, 0.28 bit/pixel
Аудио: 48 kHz, AC3 Dolby Digital, 2/0 (L,R) ch, ~448 kbps
Cубтитры: Отсутствуют
Общее
Полное имя : D:\Torrent2\Ap0st0l.2012.D.WEBDLRip.avi
Формат : AVI
Формат/Информация : Audio Video Interleave
Размер файла : 1,37 Гбайт
Продолжительность : 1 ч. 21 м.
Общий поток : 2413 Кбит/сек
Программа кодирования : VirtualDubMod 1.5.10.3 | www.virtualdub-fr.org || (build 2550/release)
Библиотека кодирования : VirtualDubMod build 2550/release
Видео
Идентификатор : 0
Формат : MPEG-4 Visual
Профиль формата : Advanced [email protected]
Параметр BVOP формата : 2
Параметр QPel формата : Нет
Параметр GMC формата : Без точки перехода
Параметр матрицы формата : Default (MPEG)
Идентификатор кодека : XVID
Идентификатор кодека/Подсказка : XviD
Продолжительность : 1 ч. 21 м.
Битрейт : 1955 Кбит/сек
Ширина : 720 пикселей
Высота : 384 пикселя
Соотношение сторон : 1,85:1
Частота кадров : 25,000 кадров/сек
Цветовое пространство : YUV
Субдискретизация насыщенности : 4:2:0
Битовая глубина : 8 бит
Тип развёртки : Прогрессивная
Метод сжатия : С потерями
Бит/(Пиксели*Кадры) : 0.283
Размер потока : 1,11 Гбайт (81%)
Библиотека кодирования : XviD 1.2.1 (UTC 2008-12-04)
Аудио
Идентификатор : 1
Формат : AC-3
Формат/Информация : Audio Coding 3
Расширение режима : CM (complete main)
Параметр Endianness формата : Big
Идентификатор кодека : 2000
Продолжительность : 1 ч. 21 м.
Вид битрейта : Постоянный
Битрейт : 448 Кбит/сек
Каналы : 2 канала
Расположение каналов : Front: L R
Частота : 48,0 КГц
Метод сжатия : С потерями
Размер потока : 260 Мбайт (19%)
Выравнивание : Разделение по промежуткам
Продолжительность промежутка : 40 мс. (1,00 видеокадр)
Время предзагрузки промежутка : 500 мс.
Трейлер
Download / Скачать

Хотите скачать бесплатно? Зарегистрируйтесь на сайте (ссылка на регистрацию). Pirat.ca - самый быстрый торрент трекер в рунете!

Как скачивать  ·   Что такое торрент  ·   Рейтинг и ограничения

viji

Корсар

Пост 03-Окт-2015 14:29 (спустя 17 часов)

[Q] 

Очень неплохой мистический мультик. Мне понравился.
[Профиль]  [ЛС] 

Aleks44

Гроза морей

Пост 04-Окт-2015 18:24 (спустя 1 день 3 часа)

[Q] 

Интересный мультфильм с сыном посмотрели
[Профиль]  [ЛС] 

bolin

Флибустьер

Пост 04-Окт-2015 19:01 (спустя 37 минут)

[Q] 

Ладно если интересный я тоже посмотрю!
Автору спасибо за раздачу!
[Профиль]  [ЛС] 

HRam

Шкипер

Пост 04-Окт-2015 22:14 (спустя 3 часа)

[Q] 

Спасибо!!! Лови бочку
[Профиль]  [ЛС] 

platon18

Гроза морей

Пост 28-Окт-2015 15:51 (спустя 23 дня)

[Q] 

706578Интересный мультфильм с сыном посмотрели
тогда и я качну
[Профиль]  [ЛС] 

Полтос

Флибустьер

Пост 28-Окт-2015 22:59 (спустя 7 часов)

[Q] 

Мульт отлично выполнен и затрагивает серьезные темы, что тем не менее не мешает просмотру в кругу семьи.
Мне понравилось Одобрямс!

_________________
Первый закон Прапорщика: Всё что поднимаемо - относительно!)
[Профиль]  [ЛС] 

Пост 04-Ноя-2015 10:27 (спустя 6 дней)

Топик был перенесен из форума Новинки (HD|DVD|BD| TV|SAT|PDTV| - Rips) в форум Зарубежные полнометражные мультфильмы
aleksey99
 
Показать сообщения:    
Ответить на тему

Текущее время: Сегодня 00:29

Часовой пояс: GMT + 4



Вы не можете начинать темы
Вы не можете отвечать на сообщения
Вы не можете редактировать свои сообщения
Вы не можете удалять свои сообщения
Вы не можете голосовать в опросах
Вы не можете прикреплять файлы к сообщениям
Вы не можете скачивать файлы

▼ Вниз