ML
     
  Уважаемый Гость!
Вы можете поддержать проект и зарегистрироваться у наших партнеров - онлайн-стратегия MyLands. При регистрации в игре Вы получите код, который сможете активировать после регистрации на pirat.ca и получить 1000 дублонов.

Ваш код:
500cb7bd8d2cec9a8aba647a87ce41c4b76f06bd
 
     

Миньоны / Minions (Кайл Балда / Kyle Balda, Пьер Соффин / Pierre Coffin) [2015 г., мультфильм, комедия, семейный, WEB-DLRip-AVC] Dub [iTunes]

Ответить на тему
 
Автор
Сообщение

Пост 08-Окт-2015 14:21

[Q] 

aleksey99

--Миньоны / Minions--«Ой, всё»-- -Производство: США, Illumination Entertainment
Год выпуска: 2015 г.
Жанр: мультфильм, комедия, семейный
Продолжительность: 01:30:53--Мировая премьера: 11 июня 2015
Российская премьера: 9 июля 2015, «UPI»--Перевод: Профессиональный (полное дублирование) [iTunes]--Режиссер: Кайл Балда / Kyle Balda, Пьер Соффин / Pierre Coffin--В ролях: Майкл Китон, Сандра Баллок, Кэти Миксон, Джон Хэмм, Хироюки Санада, Дженнифер Сондерс, Пьер Соффин, Крис Рено, Дэйв Розенбаум, Патрик Брэдфорд--Описание: Миньоны живут на планете гораздо дольше нас. У них одна навязчивая идея — служить самой Гадкой личности из имеющихся в наличии. Динозавры, фараоны, Дракула, Наполеон — все они оказались недолговечны. И тогда миньоны рванули в Нью-Йорк. Их ждут деньги, власть, роковая суперзлодейка Скарлет Оверкилл и, конечно же, вкуснейшая «банана»! Во всяком случае, так им кажется.-- --Качество видео: WEB-DLRip-AVC
Контейнер: MKV
Видео кодек: H.264
Аудио кодек: AC3
Видео: AVC at 2070 Кбит/сек, 1024x552 at 23,976 fps
Аудио: 48 kHz, AC3 Dolby Digital, 3/2 (L,C,R,l,r) + LFE ch, ~384 kbps
Cубтитры: отсутствуют.
Общее
Уникальный идентификатор : 200585151561970053840164981188079686187 (0x96E74B83C2D848F897C5BE5ABF5C922B)
Полное имя : D:\Torrent2\Minions.2015.x264.WEB-DLRip.AVC.Rus.mkv
Формат : Matroska
Версия формата : Version 2
Размер файла : 1,56 Гбайт
Продолжительность : 1 ч. 30 м.
Общий поток : 2456 Кбит/сек
Название фильма : Minions.2015.x264.WEB-DLRip.AVC.Rus
Дата кодирования : UTC 2015-10-08 08:59:13
Программа кодирования : mkvmerge v7.9.0 ('Birds') 64bit
Библиотека кодирования : libebml v1.3.1 + libmatroska v1.4.2
Видео
Идентификатор : 1
Формат : AVC
Формат/Информация : Advanced Video Codec
Профиль формата : [email protected]
Параметр CABAC формата : Да
Параметр ReFrames формата : 11 кадров
Идентификатор кодека : V_MPEG4/ISO/AVC
Продолжительность : 1 ч. 30 м.
Битрейт : 2070 Кбит/сек
Ширина : 1024 пикселя
Высота : 552 пикселя
Соотношение сторон : 1,85:1
Режим частоты кадров : Постоянный
Частота кадров : 23,976 кадра/сек
Цветовое пространство : YUV
Субдискретизация насыщенности : 4:2:0
Битовая глубина : 8 бит
Тип развёртки : Прогрессивная
Бит/(Пиксели*Кадры) : 0.153
Размер потока : 1,28 Гбайт (82%)
Заголовок : Minions.2015.x264.WEB-DLRip.AVC.Rus.by.StarbirS
Библиотека кодирования : x264 core 148 r2597 e86f3a1
Настройки программы : cabac=1 / ref=11 / deblock=1:-3:-3 / analyse=0x3:0x113 / me=umh / subme=10 / psy=1 / psy_rd=1.05:0.10 / mixed_ref=1 / me_range=48 / chroma_me=1 / trellis=2 / 8x8dct=1 / cqm=0 / deadzone=21,11 / fast_pskip=0 / chroma_qp_offset=-3 / threads=12 / lookahead_threads=2 / sliced_threads=0 / nr=0 / decimate=0 / interlaced=0 / bluray_compat=0 / constrained_intra=0 / bframes=7 / b_pyramid=2 / b_adapt=2 / b_bias=0 / direct=3 / weightb=1 / open_gop=1 / weightp=2 / keyint=240 / keyint_min=23 / scenecut=40 / intra_refresh=0 / rc=2pass / mbtree=0 / bitrate=2070 / ratetol=1.0 / qcomp=0.65 / qpmin=0 / qpmax=69 / qpstep=4 / cplxblur=20.0 / qblur=0.5 / ip_ratio=1.40 / pb_ratio=1.30 / aq=1:0.80
Язык : English
Default : Да
Forced : Нет
Аудио
Идентификатор : 2
Формат : AC-3
Формат/Информация : Audio Coding 3
Расширение режима : CM (complete main)
Параметр Endianness формата : Big
Идентификатор кодека : A_AC3
Продолжительность : 1 ч. 30 м.
Вид битрейта : Постоянный
Битрейт : 384 Кбит/сек
Каналы : 6 каналов
Расположение каналов : Front: L C R, Side: L R, LFE
Частота : 48,0 КГц
Метод сжатия : С потерями
Размер потока : 250 Мбайт (16%)
Заголовок : Дублированный (iTunes)
Язык : Russian
Default : Да
Forced : Нет
Меню
00:00:00.000 : en:1
00:05:41.000 : en:2
00:11:34.000 : en:3
00:16:57.000 : en:4
00:22:30.000 : en:5
00:27:00.000 : en:6
00:32:56.000 : en:7
00:37:30.000 : en:8
00:41:00.000 : en:9
00:45:31.000 : en:10
00:49:25.000 : en:11
00:53:45.000 : en:12
00:57:06.000 : en:13
01:01:38.000 : en:14
01:05:56.000 : en:15
01:07:57.000 : en:16
01:11:19.000 : en:17
01:15:34.000 : en:18
01:21:14.000 : en:19
01:28:26.000 : en:20
Трейлер
Download / Скачать

Хотите скачать бесплатно? Зарегистрируйтесь на сайте (ссылка на регистрацию). Pirat.ca - самый быстрый торрент трекер в рунете!

Как скачивать  ·   Что такое торрент  ·   Рейтинг и ограничения

maxvel911

Морской Волк

Пост 10-Окт-2015 20:51 (спустя 2 дня 6 часов)

[Q] 

Кто смотрел? Как?
[Профиль]  [ЛС] 

LUPIN

Морской Волк

232

Пост 10-Окт-2015 23:17 (спустя 2 часа 26 минут)

[Q] 

maxvel911, есть же ссылки на кинопоиск)
Лично мне понравилось, не напряжный, семейный мульт. Если понравились Гадкий я 1,2-то и миньоны понравятся
[Профиль]  [ЛС] 

VooL

Штурман

Пост 11-Окт-2015 10:52 (спустя 11 часов)

[Q] 

папагена Супер!

_________________
Водку не обещаю, но погуляем на славу (с) Иван Сусанин
[Профиль]  [ЛС] 

NEWSHKA

Штурман

Пост 13-Окт-2015 02:02 (спустя 1 день 15 часов)

[Q] 

Супер! Супер!
[Профиль]  [ЛС] 

Пост 14-Ноя-2015 09:31 (спустя 1 месяц 1 день)

Топик был перенесен из форума Новинки (HD|DVD|BD| TV|SAT|PDTV| - Rips) в форум Зарубежные полнометражные мультфильмы
aleksey99
 

lexaspirit

Пост 01-Мар-2016 14:57 (спустя 4 месяца 19 дней)

[Q] 

Прикольный детский мульт. С детьми посмотреть самое то

_________________
-------------------- ----------------------
[Профиль]  [ЛС] 
Показать сообщения:    
Ответить на тему

Текущее время: Сегодня 01:44

Часовой пояс: GMT + 4



Вы не можете начинать темы
Вы не можете отвечать на сообщения
Вы не можете редактировать свои сообщения
Вы не можете удалять свои сообщения
Вы не можете голосовать в опросах
Вы не можете прикреплять файлы к сообщениям
Вы не можете скачивать файлы

▼ Вниз