ML
     
  Уважаемый Гость!
Вы можете поддержать проект и зарегистрироваться у наших партнеров - онлайн-стратегия MyLands. При регистрации в игре Вы получите код, который сможете активировать после регистрации на pirat.ca и получить 1000 дублонов.

Ваш код:
73640f24f8a0f579e128ea7346fd2db2b1009143
 
     

Кунг-фу Кролик: Повелитель огня / Tu Xia Chuan Qi:Qing Li Chuan Shuo (Дейк Донг / Dake Dong) [2015 г., мультфильм, комедия, приключения, семейный, WEB-DLRip] Dub [iTunes]

Ответить на тему
 
Автор
Сообщение

Пост 15-Окт-2015 07:04

[Q] 

aleksey99

--Кунг-фу Кролик: Повелитель огня / Tu Xia Chuan Qi:Qing Li Chuan Shuo--«Убегающий тигр, спрятавшийся дракон»-- Производство: Китай, Shanghai Toonmax Media Co
Год выпуска: 2015 г.
Жанр: мультфильм, комедия, приключения, семейный
Продолжительность: 01:35:29--Мировая премьера: 21 февраля 2015
Российская премьера: 17 сентября 2015, «Вольга»--Перевод: Профессиональный (полное дублирование) [iTunes]--Режиссер: Дейк Донг / Dake Dong--В ролях: Юньвэй Хэ, Ли Хуанг--Описание: Победу в поединке сильнейших бойцов неожиданно одерживает неуклюжий с виду пушистый кролик, лучше других владеющий секретами древнего кунг-фу, после чего становится главным защитником деревни. Однако, не долго ему удается купаться в лучах славы и наслаждаться вниманием поклонников. Злодеи вознамерились выкрасть у кролика магический камень и тем самым лишить его силы. Сможет ли пушистый супергерой защитить деревню и противостоять злодеям без силы волшебного камня?-- --Качество видео: WEB-DLRip
Контейнер: AVI
Видео кодек: XviD
Аудио кодек: AC3
Видео: 720x304 (2.37:1), 24.000 fps, XviD build 73 ~1658 kbps avg, 0.32 bit/pixel
Аудио: 48 kHz, AC3 Dolby Digital, 3/2 (L,C,R,l,r) + LFE ch, ~384 kbps
Cубтитры: отсутствуют.
Общее
Полное имя : D:\Torrent 2\KuNg.Fu.Kr0liK.p0ve1itel.0gnya.2015.D.WEB-DLRip.avi
Формат : AVI
Формат/Информация : Audio Video Interleave
Размер файла : 1,37 Гбайт
Продолжительность : 1 ч. 35 м.
Общий поток : 2052 Кбит/сек
Программа кодирования : VirtualDubMod 1.5.10.3 | www.virtualdub-fr.org || (build 2550/release)
Видео
Идентификатор : 0
Формат : MPEG-4 Visual
Профиль формата : Advanced [email protected]
Параметр BVOP формата : 4
Параметр QPel формата : Нет
Параметр GMC формата : Без точки перехода
Параметр матрицы формата : Default (H.263)
Идентификатор кодека : XVID
Идентификатор кодека/Подсказка : XviD
Продолжительность : 1 ч. 35 м.
Битрейт : 1658 Кбит/сек
Ширина : 720 пикселей
Высота : 304 пикселя
Соотношение сторон : 2,35:1
Частота кадров : 24,000 кадра/сек
Цветовое пространство : YUV
Субдискретизация насыщенности : 4:2:0
Битовая глубина : 8 бит
Тип развёртки : Прогрессивная
Метод сжатия : С потерями
Бит/(Пиксели*Кадры) : 0.316
Размер потока : 1,11 Гбайт (81%)
Библиотека кодирования : XviD 73
Аудио
Идентификатор : 1
Формат : AC-3
Формат/Информация : Audio Coding 3
Расширение режима : CM (complete main)
Параметр Endianness формата : Big
Идентификатор кодека : 2000
Продолжительность : 1 ч. 35 м.
Вид битрейта : Постоянный
Битрейт : 384 Кбит/сек
Каналы : 6 каналов
Расположение каналов : Front: L C R, Side: L R, LFE
Частота : 48,0 КГц
Метод сжатия : С потерями
Размер потока : 262 Мбайт (19%)
Выравнивание : Разделение по промежуткам
Продолжительность промежутка : 42 мс. (1,00 видеокадр)
Время предзагрузки промежутка : 500 мс.
Трейлер
Download / Скачать

Хотите скачать бесплатно? Зарегистрируйтесь на сайте (ссылка на регистрацию). Pirat.ca - самый быстрый торрент трекер в рунете!

Как скачивать  ·   Что такое торрент  ·   Рейтинг и ограничения

bolin

Флибустьер

Пост 15-Окт-2015 20:12 (спустя 13 часов)

[Q] 

Спасибо за раздачу! Заберу мальчикам
[Профиль]  [ЛС] 

butyas

Корсар

Пост 15-Окт-2015 20:16 (спустя 4 минуты)

[Q] 

Спасибо за раздачу! Заберу мальчикам
такая же фигня
[Профиль]  [ЛС] 

Gari4

Флибустьер

Пост 16-Окт-2015 01:02 (спустя 4 часа)

[Q] 

себе заберу) Спасибо!!!
[Профиль]  [ЛС] 

polyk

Флибустьер

Пост 18-Окт-2015 13:03 (спустя 2 дня 12 часов)

[Q] 

спасибо посмотрим!!!!!!!!
[Профиль]  [ЛС] 

fjurer

Морской Волк

Пост 18-Окт-2015 16:12 (спустя 3 часа)

[Q] 

ребенок в восторге!!!
[Профиль]  [ЛС] 

zlotosalien

Флибустьер

Пост 18-Окт-2015 17:04 (спустя 52 минуты)

[Q] 

Не знаю как эта часть но, первая была, жалкой пародией на Кунг-фу Панда.
[Профиль]  [ЛС] 

platon18

Гроза морей

Пост 19-Окт-2015 07:12 (спустя 14 часов)

[Q] 

скоро будет кунг фу глиста
[Профиль]  [ЛС] 

Пост 19-Ноя-2015 07:45 (спустя 1 месяц)

Топик был перенесен из форума Новинки (HD|DVD|BD| TV|SAT|PDTV| - Rips) в форум Зарубежные полнометражные мультфильмы
aleksey99
 
Показать сообщения:    
Ответить на тему

Текущее время: Сегодня 22:31

Часовой пояс: GMT + 4



Вы не можете начинать темы
Вы не можете отвечать на сообщения
Вы не можете редактировать свои сообщения
Вы не можете удалять свои сообщения
Вы не можете голосовать в опросах
Вы не можете прикреплять файлы к сообщениям
Вы не можете скачивать файлы

▼ Вниз