ML
     
  Уважаемый Гость!
Вы можете поддержать проект и зарегистрироваться у наших партнеров - онлайн-стратегия MyLands. При регистрации в игре Вы получите код, который сможете активировать после регистрации на pirat.ca и получить 1000 дублонов.

Ваш код:
c89b4b6523eaac3173e9a9c062ac1a19db575961
 
     

Переполох в джунглях / Jungle Shuffle (Тадонг Пак, Маурисио Де ла Орта / Taedong Park, Mauricio De la Orta) [2014 г., мультфильм, приключения, HDRip] Dub [Чистый звук]

Ответить на тему
 
Автор
Сообщение

Пост 22-Окт-2015 20:44

[Q] 

aleksey99

--Переполох в джунглях / Jungle Shuffle-- Производство: Корея Южная, Мексика, Animation Picture Company, Avikoo Studios, CJ Entertainment, Emotion Collective Design
Год выпуска: 2014 г.
Жанр: мультфильм, приключения
Продолжительность: 01:21:34--Мировая премьера: 25 апреля 2014
Российская премьера: 1 октября 2015, «Ракета Релизинг»--Перевод: Профессиональный (полное дублирование) [Чистый звук]--Режиссер: Тадонг Пак, Маурисио Де ла Орта / Taedong Park, Mauricio De la Orta--В ролях: Дрэйк Белл, Джессика ДиЧикко, Брианн Брози, Роб Шнайдер, Майкл МакКоннохи, Крис Гарднер--Описание: Ману — коати, обаятельный молодой зверек редкого вида енотов. Он не любит сидеть без дела и мечтает помогать всем зверям в джунглях. Однако, из-за своей неуемной энергии он вечно попадает в разные нелепые ситуации. Однажды он случайно ломает огромную статую, которую возводило все племя, за что король изгоняет его, несмотря на уговоры своей дочери Саши. Но когда в племя приходит беда и браконьеры похищают Сашу, вокруг не находится героя, готового отправиться вслед за людьми. Только один Ману готов рискнуть всем и спасти дочь короля.-- --Качество видео: HDRip
Контейнер: AVI
Видео кодек: XviD
Аудио кодек: MP3
Видео: 720x400 (1.80:1), 23.976 fps, XviD build 50 ~2100 kbps avg, 0.30 bit/pixel
Аудио: 48 kHz, MPEG Layer 3, 2 ch, ~320.00 kbps avg
Cубтитры: Отсутствуют
Общее
Полное имя : D:\Torrent2\Jungle.Shuffle.2014.HDRip.avi
Формат : AVI
Формат/Информация : Audio Video Interleave
Размер файла : 1,38 Гбайт
Продолжительность : 1 ч. 21 м.
Общий поток : 2430 Кбит/сек
Программа кодирования : VirtualDubMod 1.5.10.3 | www.virtualdub-fr.org || (build 2550/release)
Видео
Идентификатор : 0
Формат : MPEG-4 Visual
Профиль формата : Advanced [email protected]
Параметр BVOP формата : 2
Параметр QPel формата : Нет
Параметр GMC формата : Без точки перехода
Параметр матрицы формата : Выборочная
Идентификатор кодека : XVID
Идентификатор кодека/Подсказка : XviD
Продолжительность : 1 ч. 21 м.
Битрейт : 2101 Кбит/сек
Ширина : 720 пикселей
Высота : 400 пикселей
Соотношение сторон : 16:9
Частота кадров : 23,976 кадра/сек
Цветовое пространство : YUV
Субдискретизация насыщенности : 4:2:0
Битовая глубина : 8 бит
Тип развёртки : Прогрессивная
Метод сжатия : С потерями
Бит/(Пиксели*Кадры) : 0.304
Размер потока : 1,20 Гбайт (86%)
Библиотека кодирования : XviD 1.2.1 (UTC 2008-12-04)
Аудио
Идентификатор : 1
Формат : MPEG Audio
Версия формата : Version 1
Профиль формата : Layer 3
Режим : Joint stereo
Идентификатор кодека : 55
Идентификатор кодека/Подсказка : MP3
Продолжительность : 1 ч. 21 м.
Вид битрейта : Постоянный
Битрейт : 320 Кбит/сек
Каналы : 2 канала
Частота : 48,0 КГц
Метод сжатия : С потерями
Размер потока : 187 Мбайт (13%)
Выравнивание : Соединение по промежуткам
Продолжительность промежутка : 42 мс. (1,00 видеокадр)
Время предзагрузки промежутка : 504 мс.
Трейлер
Download / Скачать

Хотите скачать бесплатно? Зарегистрируйтесь на сайте (ссылка на регистрацию). Pirat.ca - самый быстрый торрент трекер в рунете!

Как скачивать  ·   Что такое торрент  ·   Рейтинг и ограничения

Aryasnake

Шкипер

Пост 23-Окт-2015 11:58 (спустя 15 часов)

[Q] 

возрастной рейтинг потрудитесь указать.
[Профиль]  [ЛС] 

aleksey99 ®

282598

Пост 23-Окт-2015 13:02 (спустя 1 час 3 минуты)

[Q] 

710180возрастной рейтинг потрудитесь указать.
а на постер глянуть, не?

_________________

[Профиль]  [ЛС] 

Sanya124

Морской Волк

13

Пост 23-Окт-2015 13:48 (спустя 46 минут)

[Q] 

Посмотрим =)
Спасибо ;)
[Профиль]  [ЛС] 

salavat1234

Гроза морей

Пост 23-Окт-2015 17:48 (спустя 3 часа)

[Q] 

Спасибо!!! Автору респект!!!
[Профиль]  [ЛС] 

platon18

Гроза морей

Пост 25-Окт-2015 10:38 (спустя 1 день 16 часов)

[Q] 

только из за Харламова не буду качать, бесит его голос
[Профиль]  [ЛС] 

Пост 05-Дек-2015 09:05 (спустя 1 месяц 10 дней)

Топик был перенесен из форума Новинки (HD|DVD|BD| TV|SAT|PDTV| - Rips) в форум Зарубежные полнометражные мультфильмы
aleksey99
 
Показать сообщения:    
Ответить на тему

Текущее время: Сегодня 22:33

Часовой пояс: GMT + 4



Вы не можете начинать темы
Вы не можете отвечать на сообщения
Вы не можете редактировать свои сообщения
Вы не можете удалять свои сообщения
Вы не можете голосовать в опросах
Вы не можете прикреплять файлы к сообщениям
Вы не можете скачивать файлы

▼ Вниз