ML
     
  Уважаемый Гость!
Вы можете поддержать проект и зарегистрироваться у наших партнеров - онлайн-стратегия MyLands. При регистрации в игре Вы получите код, который сможете активировать после регистрации на pirat.ca и получить 1000 дублонов.

Ваш код:
5af7de75d3db09b6a37bc8bab71b0e87ccde73d6
 
     

Головоломка / Inside Out (Пит Доктер, Роналдо Дель Кармен) [2015, Мультфильм, комедия, BDRip] [Dub] [Лицензия]

Ответить на тему
 
Автор
Сообщение

Пост 30-Окт-2015 17:07

[Q] 

anton90vip

Юнга

Головоломка / Inside Out

Год выпуска: 2015
Выпущено: США, Pixar Animation Studios, Walt Disney Pictures
Жанр: Мультфильм, комедия
Продолжительность: 01:34:50
Перевод: Дублированный [Лицензия]
Примечание: Локализованный русский видеоряд!
Режиссер: Пит Доктер, Роналдо Дель Кармен
В ролях: Эми Полер, Дайан Лэйн, Кайл МакЛоклен, Минди Кейлинг, Билл Хейдер, Филлис Смит, Льюис Блэк, Кэтлин Диас Райли — обычная 11-летняя школьница, и, как у каждого из нас, ее поведение определяют пять базовых эмоций: Радость, Печаль, Страх, Гнев и Брезгливость. Эмоции живут в сознании девочки и каждый день помогают ей справляться с проблемами, руководя всеми ее поступками. До поры до времени эмоции живут дружно, но вдруг оказывается, что Райли и ее родителям предстоит переезд из небольшого уютного городка в шумный и людный мегаполис. Каждая из эмоций считает, что именно она лучше прочих знает, что нужно делать в этой непростой ситуации, и в голове у девочки наступает полная неразбериха. Чтобы наладить жизнь в большом городе, освоиться в новой школе и подружиться с одноклассниками, эмоциям Райли предстоит снова научиться работать сообща.
СЭМПЛ
Качество: BDRip
Формат: AVI
Видео кодек: XvID
Аудио кодек: AC3
Видео: XviD, 1740 Кбит/с, 704x400, 23,976 fps
Аудио: AC3 Dolby Digital, 3/2 (L,C,R,l,r) + LFE ch, ~448.00 kbps avg
General
Complete name : D:\Inside.Out.2015.BDRip.bog3417.avi
Format : AVI
Format/Info : Audio Video Interleave
File size : 1.46 GiB
Duration : 1h 34mn
Overall bit rate : 2 198 Kbps
Writing application : VirtualDubModRus 1.5.10.2 (build 2542/release)
Writing library : VirtualDubMod build 2542/release
Video
ID : 0
Format : MPEG-4 Visual
Format profile : Advanced [email protected]
Format settings, BVOP : 1
Format settings, QPel : No
Format settings, GMC : No warppoints
Format settings, Matrix : Custom
Codec ID : XVID
Codec ID/Hint : XviD
Duration : 1h 34mn
Bit rate : 1 741 Kbps
Width : 704 pixels
Height : 400 pixels
Display aspect ratio : 16:9
Frame rate : 23.976 fps
Color space : YUV
Chroma subsampling : 4:2:0
Bit depth : 8 bits
Scan type : Progressive
Compression mode : Lossy
Bits/(Pixel*Frame) : 0.258
Stream size : 1.15 GiB (79%)
Writing library : XviD 73
Audio
ID : 1
Format : AC-3
Format/Info : Audio Coding 3
Mode extension : CM (complete main)
Format settings, Endianness : Big
Codec ID : 2000
Duration : 1h 34mn
Bit rate mode : Constant
Bit rate : 448 Kbps
Channel(s) : 6 channels
Channel positions : Front: L C R, Side: L R, LFE
Sampling rate : 48.0 KHz
Compression mode : Lossy
Stream size : 304 MiB (20%)
Alignment : Split accross interleaves
Interleave, duration : 42 ms (1.00 video frame)
Interleave, preload duratio : 500 ms
Download / Скачать

Хотите скачать бесплатно? Зарегистрируйтесь на сайте (ссылка на регистрацию). Pirat.ca - самый быстрый торрент трекер в рунете!

Как скачивать  ·   Что такое торрент  ·   Рейтинг и ограничения

EDVAR

Легенда

Пост 30-Окт-2015 17:21 (спустя 14 минут)

[Q] 

Благодарю!!!Пусть детвора посмотрит.

_________________
"Как других судить-вы судьи.Как себя-вы адвокаты"
[Профиль]  [ЛС] 

anton90vip ®

Юнга

155

Пост 30-Окт-2015 18:03 (спустя 41 минута)

[Q] 

711692Благодарю!!!Пусть детвора посмотрит.
Спасибо за Спасибо
Добавлено спустя 2 минуты 8 секунд:
711692Благодарю!!!Пусть детвора посмотрит.
я сам смотрел уже 2 раза, хотя далеко уже не ребенок af
[Профиль]  [ЛС] 

Пост 31-Окт-2015 10:19 (спустя 16 часов)

Топик был перенесен из форума Мультфильмы (Трюм) в форум Новинки (HD|DVD|BD| TV|SAT|PDTV| - Rips)
erchine
 

Kvazymode

Шкипер

Пост 31-Окт-2015 15:52 (спустя 21 час)

[Q] 

А чего формат такой «королевский»? Для мобильников досмартфонной эпохи и для тех, кто на дайл-апе все еще?
[Профиль]  [ЛС] 

anton90vip ®

Юнга

155

Пост 31-Окт-2015 18:07 (спустя 2 часа 14 минут)

[Q] 

711885А чего формат такой «королевский»? Для мобильников досмартфонной эпохи и для тех, кто на дайл-апе все еще?
а что скачать самому в сети блюр 2-х дисковый на 60 гиг религия не позволяет cm Тут вам никто и ничем не обязан! cw
[Профиль]  [ЛС] 

surzis

Корсар

Пост 04-Ноя-2015 03:11 (спустя 3 дня)

[Q] 

Не плохой мультфильм. Даже рецензию писанул по ему) http://surzis.ru/golovolomka/

_________________
http://surzis.ru/ - заходи ко мне в блог! Советую только хорошие фильмы и игры!
[Профиль]  [ЛС] 

platon18

Гроза морей

Пост 04-Ноя-2015 08:18 (спустя 5 часов)

[Q] 

мульт не вставил
[Профиль]  [ЛС] 

Agat

Корсар

Пост 06-Ноя-2015 22:05 (спустя 2 дня 13 часов)

[Q] 

Заценим, давно хотел =)) Лови бочку

_________________
Не для Нас, команда - Вольно, отдохнём, когда раздавят!!!
[Профиль]  [ЛС] 

Полтос

Флибустьер

Пост 07-Ноя-2015 05:51 (спустя 7 часов)

[Q] 

Что-то близкое... к Фрейду... Психоанализ для детей - понятие спорное - могут и не понять. Для детей старшего возраста мульт вполне не плох.

_________________
Первый закон Прапорщика: Всё что поднимаемо - относительно!)
[Профиль]  [ЛС] 

Раемия

Флибустьер

Пост 17-Ноя-2015 20:15 (спустя 10 дней)

[Q] 

Просто шикарный мульт.Однозначно в коллекцию! Супер! Автору респект!!!

_________________
Любите кроликов!!!…и они отплатят вам тем же…
[Профиль]  [ЛС] 

Пост 05-Дек-2015 09:01 (спустя 17 дней)

Топик был перенесен из форума Новинки (HD|DVD|BD| TV|SAT|PDTV| - Rips) в форум Зарубежные полнометражные мультфильмы
aleksey99
 

lightmaster

Флибустьер

Пост 06-Янв-2016 23:54 (спустя 1 месяц 19 дней)

[Q] 

Спасибо от детворы и Лови бочку
[Профиль]  [ЛС] 
Показать сообщения:    
Ответить на тему

Текущее время: Сегодня 14:14

Часовой пояс: GMT + 4



Вы не можете начинать темы
Вы не можете отвечать на сообщения
Вы не можете редактировать свои сообщения
Вы не можете удалять свои сообщения
Вы не можете голосовать в опросах
Вы не можете прикреплять файлы к сообщениям
Вы не можете скачивать файлы

▼ Вниз