ML
     
  Уважаемый Гость!
Вы можете поддержать проект и зарегистрироваться у наших партнеров - онлайн-стратегия MyLands. При регистрации в игре Вы получите код, который сможете активировать после регистрации на pirat.ca и получить 1000 дублонов.

Ваш код:
c89b4b6523eaac3173e9a9c062ac1a19db575961
 
     

Маленький принц / The Little Prince (Марк Осборн / Mark Osborne) [2015 г., мультфильм, фэнтези, BDRip] DVO [Parovoz Production]

Ответить на тему
 
Автор
Сообщение

Пост 28-Ноя-2015 09:49

[Q] 

aleksey99

--Маленький принц / The Little Prince-- Производство: Франция, On Entertainment, Onyx Films, Orange Studio, Paramount Animation
Год выпуска: 2015 г.
Жанр: мультфильм, фэнтези
Продолжительность: 01:46:34--Мировая премьера: 22 мая 2015
Российская премьера: 24 декабря 2015, «Вольга»--Перевод: Любительский (двухголосый, закадровый) [Parovoz Production]--Режиссер: Марк Осборн / Mark Osborne--В ролях: Рэйчел МакАдамс, Пол Радд, Джеймс Франко, Марион Котийяр, Бенисио Дель Торо, Маккензи Фой, Джефф Бриджес, Венсан Кассель, Пол Джаматти, Рики Джервэйс--Описание: Мир невозможен без фантазии и приключений. По крайней мере в это верит добродушный старик авиатор, по соседству с которым недавно поселилась одна очень педантичная мама со своей прилежной дочкой. Жизнь девочки подчинена строгому учебному плану, в котором время на друзей предусмотрено только следующим летом. Однако этот тщательно выстроенный план трещит по швам, когда в жизнь девочки врывается странный сосед с его невероятными рассказами о Маленьком Принце и далеких звездах. Осталось только починить самолет, и в путь! Так начинается большое путешествие девочки — полное опасностей, волшебства, юмора и настоящей дружбы.-- --Качество видео: BDRip
Контейнер: AVI
Видео кодек: XviD
Аудио кодек: AC3
Видео: 720x304 (2.37:1), 23.976 fps, XviD build 73 ~1504 kbps avg, 0.29 bit/pixel
Аудио: 48 kHz, AC3 Dolby Digital, 2/0 (L,R) ch, ~384 kbps
Cубтитры: отсутствуют.
Общее
Полное имя : H:\Torrent2\Malenkij.Princ.2015.L2.BDRip.avi
Формат : AVI
Формат/Информация : Audio Video Interleave
Размер файла : 1,41 Гбайт
Продолжительность : 1 ч. 46 м.
Общий поток : 1898 Кбит/сек
Программа кодирования : VirtualDubMod 1.5.10.3 (build 2550/release)
Видео
Идентификатор : 0
Формат : MPEG-4 Visual
Профиль формата : Advanced [email protected]
Параметр BVOP формата : 2
Параметр QPel формата : Нет
Параметр GMC формата : Без точки перехода
Параметр матрицы формата : Выборочная
Идентификатор кодека : XVID
Идентификатор кодека/Подсказка : XviD
Продолжительность : 1 ч. 46 м.
Битрейт : 1505 Кбит/сек
Ширина : 720 пикселей
Высота : 304 пикселя
Соотношение сторон : 2,35:1
Частота кадров : 23,976 кадра/сек
Цветовое пространство : YUV
Субдискретизация насыщенности : 4:2:0
Битовая глубина : 8 бит
Тип развёртки : Прогрессивная
Метод сжатия : С потерями
Бит/(Пиксели*Кадры) : 0.287
Размер потока : 1,12 Гбайт (79%)
Библиотека кодирования : XviD 73
Аудио
Идентификатор : 1
Формат : AC-3
Формат/Информация : Audio Coding 3
Расширение режима : CM (complete main)
Параметр Endianness формата : Big
Идентификатор кодека : 2000
Продолжительность : 1 ч. 46 м.
Вид битрейта : Постоянный
Битрейт : 384 Кбит/сек
Каналы : 2 канала
Расположение каналов : Front: L R
Частота : 48,0 КГц
Метод сжатия : С потерями
Размер потока : 293 Мбайт (20%)
Выравнивание : Разделение по промежуткам
Продолжительность промежутка : 42 мс. (1,00 видеокадр)
Время предзагрузки промежутка : 500 мс.
Трейлер
Download / Скачать

Хотите скачать бесплатно? Зарегистрируйтесь на сайте (ссылка на регистрацию). Pirat.ca - самый быстрый торрент трекер в рунете!

Как скачивать  ·   Что такое торрент  ·   Рейтинг и ограничения

salavat1234

Гроза морей

Пост 28-Ноя-2015 13:01 (спустя 3 часа)

[Q] 

Спасибо!!! Лови бочку
[Профиль]  [ЛС] 

Раемия

Флибустьер

Пост 28-Ноя-2015 13:50 (спустя 49 минут)

[Q] 

Кто-нибудь уже посмотрел?Как мульт? Автору респект!!!

_________________
Любите кроликов!!!…и они отплатят вам тем же…
[Профиль]  [ЛС] 

Alex-dix

Флибустьер

Пост 28-Ноя-2015 23:30 (спустя 9 часов)

[Q] 

Забираю, глянем! Спасибо!!!
[Профиль]  [ЛС] 

rebel2

Корсар

Пост 29-Ноя-2015 02:08 (спустя 2 часа 38 минут)

[Q] 

Спасибо!
[Профиль]  [ЛС] 

sados

Лоцман

Пост 02-Дек-2015 10:37 (спустя 3 дня)

[Q] 

спасибо, клас!
[Профиль]  [ЛС] 

ягжин

Гроза морей

Пост 02-Дек-2015 21:03 (спустя 10 часов)

[Q] 

Спасибо! Автору респект!!! Лови бочку
[Профиль]  [ЛС] 

bolin

Флибустьер

Пост 02-Дек-2015 22:53 (спустя 1 час 49 минут)

[Q] 

Забираю мальчикам! АВТОР Лови бочку
[Профиль]  [ЛС] 

shalonina

Гроза морей

Пост 04-Дек-2015 20:15 (спустя 1 день 21 час)

[Q] 

Лови бочку Спасибо!!!

_________________
[Профиль]  [ЛС] 

Barskavkaz

Корсар

Пост 23-Дек-2015 00:19 (спустя 18 дней)

[Q] 

Кто знает, когда звук будет?

_________________
Д.Тк
[Профиль]  [ЛС] 

airat85

Корсар

Пост 23-Дек-2015 21:24 (спустя 21 час)

[Q] 

и как перевод?
[Профиль]  [ЛС] 

kosmo5

Шкипер

Пост 25-Дек-2015 02:48 (спустя 1 день 5 часов)

[Q] 

все сказали спасибо, но никто не отписался как мульт и как озвучка.....

_________________
[Профиль]  [ЛС] 

Пост 07-Янв-2016 11:58 (спустя 13 дней)

Топик был перенесен из форума Новинки (HD|DVD|BD| TV|SAT|PDTV| - Rips) в форум Зарубежные полнометражные мультфильмы
aleksey99
 
Показать сообщения:    
Ответить на тему

Текущее время: Сегодня 22:30

Часовой пояс: GMT + 4



Вы не можете начинать темы
Вы не можете отвечать на сообщения
Вы не можете редактировать свои сообщения
Вы не можете удалять свои сообщения
Вы не можете голосовать в опросах
Вы не можете прикреплять файлы к сообщениям
Вы не можете скачивать файлы

▼ Вниз