ML
     
  Уважаемый Гость!
Вы можете поддержать проект и зарегистрироваться у наших партнеров - онлайн-стратегия MyLands. При регистрации в игре Вы получите код, который сможете активировать после регистрации на pirat.ca и получить 1000 дублонов.

Ваш код:
fcd618d94adc1456bccbde5047c9cd0930e4ae4d
 
     

Крутые яйца / Un gallo con muchos huevos (Габриэль Рива Паласио Алатристе, Родольфо Рива Палачио Алатристе / Gabriel Riva Palacio Alatriste, Rodolfo Riva-Palacio Alatriste) [2015 г., мультфильм, DVDRip] Dub [Чистый звук]

Ответить на тему
 
Автор
Сообщение

Пост 14-Дек-2015 21:46

[Q] 

ara1205

-Крутые яйца / Un gallo con muchos huevos-- Производство: Мексика
Год выпуска: 2015 г.
Жанр: мультфильм
Продолжительность: 01:38:00
Мировая премьера: 20 августа 2015
Российская премьера: 15 октября 2015
Перевод: Профессиональный (полное дублирование) [Чистый звук]-Режиссер: Габриэль Рива Паласио Алатристе, Родольфо Рива Палачио Алатристе / Gabriel Riva Palacio Alatriste, Rodolfo Riva-Palacio Alatriste-В ролях: Бруно Бичир, Карлос Эспехель, Анхелика Вале, Омар Чапарро, Майте Перрони Беорлеги, Серхио Сендель, Нинель Конде, Джейми Эймерих, Анна Брисбин-Описание: Молодой петух Тото хочет добиться в жизни гораздо большего, чем просто каждое утро будить свою ферму. Его мечта — стать знаменитым боксером! Но не зря говорят: «Бойся своих желаний».- -Качество видео: DVDRip
Контейнер: AVI
Видео кодек: XviD
Аудио кодек: AC3
Видео: 720x400, 23,976 fps, 1925 kbps avg, 0.279 bit/pixel
Аудио: 48,0 kHz, AC3 Dolby Digital, 2 ch, ~192 kbps
Cубтитры: отсутствуют-
Общее
Полное имя : C:\Users\Roman\Pictures\Крутые яйца\Krutie.yaica.2015.D.DVDRip.[pirat.ca].avi
Формат : AVI
Формат/Информация : Audio Video Interleave
Размер файла : 1,46 Гбайт
Продолжительность : 1 ч. 38 м.
Общий поток : 2126 Кбит/сек
Программа кодирования : VirtualDubMod 1.5.10.2 (build 2540/release)
Библиотека кодирования : VirtualDubMod build 2540/release
Видео
Идентификатор : 0
Формат : MPEG-4 Visual
Профиль формата : Advanced [email protected]
Параметр BVOP формата : 2
Параметр QPel формата : Нет
Параметр GMC формата : Без точки перехода
Параметр матрицы формата : Default (MPEG)
Идентификатор кодека : XVID
Идентификатор кодека/Подсказка : XviD
Продолжительность : 1 ч. 38 м.
Битрейт : 1925 Кбит/сек
Ширина : 720 пикселей
Высота : 400 пикселей
Соотношение сторон : 16:9
Частота кадров : 23,976 кадра/сек
Цветовое пространство : YUV
Субдискретизация насыщенности : 4:2:0
Битовая глубина : 8 бит
Тип развёртки : Прогрессивная
Метод сжатия : С потерями
Бит/(Пиксели*Кадры) : 0.279
Размер потока : 1,32 Гбайт (91%)
Библиотека кодирования : XviD 1.2.1 (UTC 2008-12-04)
Аудио
Идентификатор : 1
Формат : AC-3
Формат/Информация : Audio Coding 3
Расширение режима : CM (complete main)
Параметр Endianness формата : Big
Идентификатор кодека : 2000
Продолжительность : 1 ч. 38 м.
Вид битрейта : Постоянный
Битрейт : 192 Кбит/сек
Каналы : 2 канала
Расположение каналов : Front: L R
Частота : 48,0 КГц
Битовая глубина : 16 бит
Метод сжатия : С потерями
Размер потока : 135 Мбайт (9%)
Выравнивание : Разделение по промежуткам
Продолжительность промежутка : 42 мс. (1,00 видеокадр)
Время предзагрузки промежутка : 500 мс.
-
-
Download / Скачать

Хотите скачать бесплатно? Зарегистрируйтесь на сайте (ссылка на регистрацию). Pirat.ca - самый быстрый торрент трекер в рунете!

Как скачивать  ·   Что такое торрент  ·   Рейтинг и ограничения

igorexa1111

Корсар

Пост 14-Дек-2015 22:00 (спустя 13 минут)

[Q] 

ara1205, aa
[Профиль]  [ЛС] 

demon-292

Корсар

Пост 14-Дек-2015 22:30 (спустя 30 минут)

[Q] 

Спасибо, бочка в трюме! Лови бочку
[Профиль]  [ЛС] 

EDVAR

Легенда

Пост 14-Дек-2015 22:34 (спустя 4 минуты)

[Q] 

Благодарю за чистый звук! Раздающему респект!

_________________
"Как других судить-вы судьи.Как себя-вы адвокаты"
[Профиль]  [ЛС] 

Znoi

Флибустьер

1163

Пост 15-Дек-2015 16:31 (спустя 17 часов)

[Q] 

Спасибо!!! Лови бочку ...
[Профиль]  [ЛС] 

bolin

Флибустьер

Пост 15-Дек-2015 18:02 (спустя 1 час 31 минута)

[Q] 

Забираю малышам! АВТОР Лови бочку
[Профиль]  [ЛС] 

KoNiaL_KCC

Гроза морей

Пост 15-Дек-2015 19:38 (спустя 1 час 35 минут)

[Q] 

графика на уровне Мексики, всё таки наши Три богатыря намного круче. Сюжет есть, детям понравиться. Автору респект!!!
[Профиль]  [ЛС] 

amxs

Лоцман

Пост 16-Дек-2015 11:49 (спустя 16 часов)

[Q] 

Спс.
А оригинальной дороги нет?
[Профиль]  [ЛС] 

СерВолк

Корсар

Пост 16-Дек-2015 17:07 (спустя 5 часов)

[Q] 

словно они сделали пародию на Рокки
превратив итальянского жеребца в мексиканского петушка с крутыми яйцами
да и бабулька из Мадагаскара походу cm
P.S. почему в описании молодой петух Тото , ему же Rolo все кричали ?
[Профиль]  [ЛС] 

KoNiaL_KCC

Гроза морей

Пост 16-Дек-2015 21:17 (спустя 4 часа)

[Q] 

оригинальное название просто убило bj
[Профиль]  [ЛС] 

airat85

Корсар

Пост 18-Дек-2015 10:46 (спустя 1 день 13 часов)

[Q] 

KoNiaL_KCC, шикарно подметил!!! как обнаружил?))))
[Профиль]  [ЛС] 

KoNiaL_KCC

Гроза морей

Пост 18-Дек-2015 23:00 (спустя 12 часов)

[Q] 

airat85, как обычно, просто начал просмотр данного "шедевра" ai
[Профиль]  [ЛС] 

ГИППАРРД

Морской Волк

2

Пост 25-Дек-2015 19:52 (спустя 6 дней)

[Q] 

Щас глянем что за фильмец о чём там хоть речь идёт не скажите?????
handshake
[Профиль]  [ЛС] 

rebel2

Корсар

Пост 25-Дек-2015 20:03 (спустя 10 минут)

[Q] 

Спасибо!
[Профиль]  [ЛС] 

fishman

Корсар

Пост 03-Янв-2016 21:50 (спустя 9 дней)

[Q] 

Заценим! cs
Спасибо!!!

_________________
|___|___|___|___|___|___|___|__|__
__|__|__|_Биться головой_|___|___|
|___|___|___|__сюда!!___|___|__|__
__|___|___|___|___|___|___|__|__
[Профиль]  [ЛС] 

Пост 25-Янв-2016 07:55 (спустя 21 день)

Топик был перенесен из форума Новинки (HD|DVD|BD| TV|SAT|PDTV| - Rips) в форум Зарубежные полнометражные мультфильмы
aleksey99
 
Показать сообщения:    
Ответить на тему

Текущее время: Сегодня 12:54

Часовой пояс: GMT + 4



Вы не можете начинать темы
Вы не можете отвечать на сообщения
Вы не можете редактировать свои сообщения
Вы не можете удалять свои сообщения
Вы не можете голосовать в опросах
Вы не можете прикреплять файлы к сообщениям
Вы не можете скачивать файлы

▼ Вниз