ML
     
  Уважаемый Гость!
Вы можете поддержать проект и зарегистрироваться у наших партнеров - онлайн-стратегия MyLands. При регистрации в игре Вы получите код, который сможете активировать после регистрации на pirat.ca и получить 1000 дублонов.

Ваш код:
0ea1bf889af42fca5f67d0a391efb3400850ad7c
 
     

Крутые яйца / Un gallo con muchos huevos (Габриэль Рива Паласио Алатристе, Родольфо Рива Палачио Алатристе / Gabriel Riva Palacio Alatriste, Rodolfo Riva-Palacio Alatriste) [2015 г., мультфильм, DVDRip] Dub [Чистый звук]

Ответить на тему
 
Автор
Сообщение

Пост 14-Дек-2015 23:39

[Q] 

ara1205

-Крутые яйца / Un gallo con muchos huevos-- Производство: Мексика
Год выпуска: 2015 г.
Жанр: мультфильм
Продолжительность: 01:38:00
Мировая премьера: 20 августа 2015
Российская премьера: 15 октября 2015
Перевод: Профессиональный (полное дублирование) [Чистый звук]-Режиссер: Габриэль Рива Паласио Алатристе, Родольфо Рива Палачио Алатристе / Gabriel Riva Palacio Alatriste, Rodolfo Riva-Palacio Alatriste-В ролях: Бруно Бичир, Карлос Эспехель, Анхелика Вале, Омар Чапарро, Майте Перрони Беорлеги, Серхио Сендель, Нинель Конде, Джейми Эймерих, Анна Брисбин-Описание: Молодой петух Тото хочет добиться в жизни гораздо большего, чем просто каждое утро будить свою ферму. Его мечта — стать знаменитым боксером! Но не зря говорят: «Бойся своих желаний».- -Качество видео: DVDRip
Контейнер: AVI
Видео кодек: XviD
Аудио кодек: MP3
Видео: 640x352, 23,976 fps, 954 kbps avg, 0.171 bit/pixel
Аудио: 48,0 kHz, MPEG Layer 3, 2 ch, ~128.00 kbps avg
Cубтитры: отсутствуют-
Общее
Полное имя : C:\Users\Roman\Pictures\Крутые яйца\Krutie.yaica.2015.DVDRip.745Mb.avi
Формат : AVI
Формат/Информация : Audio Video Interleave
Размер файла : 745 Мбайт
Продолжительность : 1 ч. 38 м.
Общий поток : 1061 Кбит/сек
Название фильма : Krutie.yaica.2015.DVDRip.745Mb.[pirat.ca]
Режиссёр : http://pirat.ca
Программа кодирования : VirtualDubMod 1.5.10.3 | www.virtualdub-fr.org || (build 2550/release)
Видео
Идентификатор : 0
Формат : MPEG-4 Visual
Профиль формата : Advanced [email protected]
Параметр BVOP формата : 2
Параметр QPel формата : Нет
Параметр GMC формата : Без точки перехода
Параметр матрицы формата : Default (MPEG)
Идентификатор кодека : XVID
Идентификатор кодека/Подсказка : XviD
Продолжительность : 1 ч. 38 м.
Битрейт : 924 Кбит/сек
Ширина : 640 пикселей
Высота : 352 пикселя
Соотношение сторон : 16:9
Частота кадров : 23,976 кадра/сек
Цветовое пространство : YUV
Субдискретизация насыщенности : 4:2:0
Битовая глубина : 8 бит
Тип развёртки : Прогрессивная
Метод сжатия : С потерями
Бит/(Пиксели*Кадры) : 0.171
Размер потока : 649 Мбайт (87%)
Библиотека кодирования : XviD 73
Аудио
Идентификатор : 1
Формат : MPEG Audio
Версия формата : Version 1
Профиль формата : Layer 3
Идентификатор кодека : 55
Идентификатор кодека/Подсказка : MP3
Продолжительность : 1 ч. 38 м.
Вид битрейта : Постоянный
Битрейт : 128 Кбит/сек
Каналы : 2 канала
Частота : 48,0 КГц
Метод сжатия : С потерями
Размер потока : 89,9 Мбайт (12%)
Выравнивание : Соединение по промежуткам
Продолжительность промежутка : 42 мс. (1,00 видеокадр)
Время предзагрузки промежутка : 504 мс.
Библиотека кодирования : LAMELAME_MAJOR_VERSI
-
-
Download / Скачать

Хотите скачать бесплатно? Зарегистрируйтесь на сайте (ссылка на регистрацию). Pirat.ca - самый быстрый торрент трекер в рунете!

Как скачивать  ·   Что такое торрент  ·   Рейтинг и ограничения

Пост 25-Янв-2016 07:48 (спустя 1 месяц 10 дней)

Топик был перенесен из форума Новинки (HD|DVD|BD| TV|SAT|PDTV| - Rips) в форум Зарубежные полнометражные мультфильмы
aleksey99
 
Показать сообщения:    
Ответить на тему

Текущее время: Сегодня 00:39

Часовой пояс: GMT + 4



Вы не можете начинать темы
Вы не можете отвечать на сообщения
Вы не можете редактировать свои сообщения
Вы не можете удалять свои сообщения
Вы не можете голосовать в опросах
Вы не можете прикреплять файлы к сообщениям
Вы не можете скачивать файлы

▼ Вниз