ML
     
  Уважаемый Гость!
Вы можете поддержать проект и зарегистрироваться у наших партнеров - онлайн-стратегия MyLands. При регистрации в игре Вы получите код, который сможете активировать после регистрации на pirat.ca и получить 1000 дублонов.

Ваш код:
fe4e93b754a7c2b306fcfc8bc32532ea1cf59d3b
 
     

Монстры на каникулах 2 / Hotel Transylvania 2 (Генндий Тартаковский / Genndy Tartakovsky) [2015 г., мультфильм, фэнтези, комедия, семейный, HDRip] Dub [iTunes]

Ответить на тему
 
Автор
Сообщение

Пост 25-Дек-2015 07:32

[Q] 

aleksey99

--Монстры на каникулах 2 / Hotel Transylvania 2--«Drac's pack is back»-- Производство: США, Sony Pictures Animation, Columbia Pictures, LStar Capital
Год выпуска: 2015 г.
Жанр: мультфильм, фэнтези, комедия, семейный
Продолжительность: 01:29:18--Мировая премьера: 21 сентября 2015
Российская премьера: 22 октября 2015, «WDSSPR»
Дата выхода DVD: 21 января 2016, «CP Дистрибуция»--Перевод: Профессиональный (полное дублирование) [iTunes]--Режиссер: Генндий Тартаковский / Genndy Tartakovsky--В ролях: Адам Сэндлер, Энди Сэмберг, Селена Гомес, Кевин Джеймс, Стив Бушеми, Дэвид Спейд, Кигэн-Майкл Ки, Эшер Блинкофф, Фрэн Дрешер, Молли Шеннон, Меган Маллалли, Ник Офферман, Дэна Карви, Роб Риггл, Мэл Брукс, Джонни Соломон, Крис Кэттэн, Сэди Сэндлер, Санни Сэндлер, Джон Ловиц--Описание: Граф Дракула выдает свою очаровательную дочь замуж за парня из мира людей, и у молодой «смешанной» пары рождается сын. Станет ли этот ребенок человеком или вампиром?-- --Качество видео: HDRip
Контейнер: AVI
Видео кодек: XviD
Аудио кодек: AC3
Видео: 720x384 (1.88:1), 23.976 fps, XviD build 50 ~1797 kbps avg, 0.27 bit/pixel
Аудио: 48 kHz, AC3 Dolby Digital, 3/2 (L,C,R,l,r) + LFE ch, ~384 kbps
Cубтитры: отсутствуют
Общее
Полное имя : H:\Torrent2\Monsry2.2015.D.HDRip.1400Mb.avi
Формат : AVI
Формат/Информация : Audio Video Interleave
Размер файла : 1,37 Гбайт
Продолжительность : 1 ч. 29 м.
Общий поток : 2191 Кбит/сек
Программа кодирования : VirtualDubMod 1.5.10.2 (build 2540/release)
Библиотека кодирования : VirtualDubMod build 2540/release
Видео
Идентификатор : 0
Формат : MPEG-4 Visual
Профиль формата : Advanced [email protected]
Параметр BVOP формата : 2
Параметр QPel формата : Нет
Параметр GMC формата : Без точки перехода
Параметр матрицы формата : Default (MPEG)
Идентификатор кодека : XVID
Идентификатор кодека/Подсказка : XviD
Продолжительность : 1 ч. 29 м.
Битрейт : 1798 Кбит/сек
Ширина : 720 пикселей
Высота : 384 пикселя
Соотношение сторон : 1,85:1
Частота кадров : 23,976 кадра/сек
Цветовое пространство : YUV
Субдискретизация насыщенности : 4:2:0
Битовая глубина : 8 бит
Тип развёртки : Прогрессивная
Метод сжатия : С потерями
Бит/(Пиксели*Кадры) : 0.271
Размер потока : 1,12 Гбайт (82%)
Библиотека кодирования : XviD 1.2.1 (UTC 2008-12-04)
Аудио
Идентификатор : 1
Формат : AC-3
Формат/Информация : Audio Coding 3
Расширение режима : CM (complete main)
Параметр Endianness формата : Big
Идентификатор кодека : 2000
Продолжительность : 1 ч. 29 м.
Вид битрейта : Постоянный
Битрейт : 384 Кбит/сек
Каналы : 6 каналов
Расположение каналов : Front: L C R, Side: L R, LFE
Частота : 48,0 КГц
Метод сжатия : С потерями
Размер потока : 245 Мбайт (18%)
Выравнивание : Разделение по промежуткам
Продолжительность промежутка : 42 мс. (1,00 видеокадр)
Время предзагрузки промежутка : 500 мс.
Трейлер
Download / Скачать

Хотите скачать бесплатно? Зарегистрируйтесь на сайте (ссылка на регистрацию). Pirat.ca - самый быстрый торрент трекер в рунете!

Как скачивать  ·   Что такое торрент  ·   Рейтинг и ограничения

MikeB

Гроза морей

Пост 26-Дек-2015 15:50 (спустя 1 день 8 часов)

[Q] 

отличный мультфильм - рекомендую
[Профиль]  [ЛС] 

NIKROLUNGER

Флибустьер

60

Пост 26-Дек-2015 17:00 (спустя 1 час 10 минут)

[Q] 

Забавный мульт, даже посмеялся немного cm
[Профиль]  [ЛС] 

Eugenius

Корсар

660

Пост 29-Дек-2015 22:54 (спустя 3 дня)

[Q] 

Ебаный мульт!!
Долбаные гейропейские ценности!
фу
Шлак!
"... надо сообщить в органы... "
кодекс
!anton966 писал(а):

Ну на счет органов не знаю, Вам виднее, а за мат и непристойное поведение "кляп" на недельку.

_________________
Используйте шифрование для пирингового обмена:
uTorrent > Настройки > BitTorrent >> Шифрование протокола >> "Принудительно" (+ Принимать нешифрованые)
[Профиль]  [ЛС] 

sergegor

Штурман

Пост 30-Дек-2015 00:37 (спустя 1 час 42 минуты)

[Q] 

Первая часть была неплохая, надо эту глянуть
[Профиль]  [ЛС] 

cumberlady

Морской Волк

Пост 03-Янв-2016 15:58 (спустя 4 дня)

[Q] 

Первая часть понравилась больше... Спасибо!!!
[Профиль]  [ЛС] 

fishman

Корсар

Пост 03-Янв-2016 21:18 (спустя 5 часов)

[Q] 

Заценим!
Спасибо!!!
Рому отгрузил!!!

_________________
|___|___|___|___|___|___|___|__|__
__|__|__|_Биться головой_|___|___|
|___|___|___|__сюда!!___|___|__|__
__|___|___|___|___|___|___|__|__
[Профиль]  [ЛС] 

iuspeshnyj

Штурман

Пост 05-Янв-2016 15:23 (спустя 1 день 18 часов)

[Q] 

давно хотел глянуть_________________________________
[Профиль]  [ЛС] 

Dommi

Шкипер

Пост 06-Янв-2016 16:01 (спустя 1 день)

[Q] 

Спасибо!!! 11111111111111111111
[Профиль]  [ЛС] 

ger

Шкипер

Пост 07-Янв-2016 17:43 (спустя 1 день 1 час)

[Q] 

гораздо хуже первой части, которая также не вызвала особых эмоций...
3 из 10
[Профиль]  [ЛС] 

arhangel3105

Морской Волк

Пост 13-Янв-2016 16:01 (спустя 5 дней)

[Q] 

мульт в свем стиле - поржал) Лови бочку
[Профиль]  [ЛС] 

RozM

Морской Волк

Пост 14-Янв-2016 16:42 (спустя 1 день)

[Q] 

Хороший мульт. Рекомендую. Ребенку понравился тоже.
[Профиль]  [ЛС] 

Milan

Шкипер

Пост 15-Янв-2016 10:22 (спустя 17 часов)

[Q] 

Классный мульт, Сендлеру зачёт. А вам ребята респект Лови бочку
[Профиль]  [ЛС] 

Пост 25-Янв-2016 07:46 (спустя 9 дней)

Топик был перенесен из форума Новинки (HD|DVD|BD| TV|SAT|PDTV| - Rips) в форум Зарубежные полнометражные мультфильмы
aleksey99
 

alexsey

Корсар

77

Пост 26-Фев-2016 10:08 (спустя 1 месяц 10 дней)

[Q] 

Классный мульт, на уровне 1части
[Профиль]  [ЛС] 

Nemes1s

Шкипер

Пост 16-Мар-2016 16:24 (спустя 19 дней)

[Q] 

Спасибо пираты! Супер!
[Профиль]  [ЛС] 

lexaspirit

Пост 01-Апр-2016 09:10 (спустя 15 дней)

[Q] 

Хорошо мульт. Посмотрел с удовольствием

_________________
-------------------- ----------------------
[Профиль]  [ЛС] 

Ливень

Корсар

Пост 25-Авг-2016 22:31 (спустя 4 месяца 24 дня)

[Q] 

Слабенько, очень слабенько...
[Профиль]  [ЛС] 
Показать сообщения:    
Ответить на тему

Текущее время: Сегодня 14:28

Часовой пояс: GMT + 4



Вы не можете начинать темы
Вы не можете отвечать на сообщения
Вы не можете редактировать свои сообщения
Вы не можете удалять свои сообщения
Вы не можете голосовать в опросах
Вы не можете прикреплять файлы к сообщениям
Вы не можете скачивать файлы

▼ Вниз