ML
     
  Уважаемый Гость!
Вы можете поддержать проект и зарегистрироваться у наших партнеров - онлайн-стратегия MyLands. При регистрации в игре Вы получите код, который сможете активировать после регистрации на pirat.ca и получить 1000 дублонов.

Ваш код:
a978488e62322cd72e113ab723b8a7fdc10eb9b9
 
     

Маленький принц / The Little Prince (Марк Осборн / Mark Osborne) [2015 г., мультфильм, фэнтези, HDRip] Dub [Чистый звук]

Ответить на тему
 
Автор
Сообщение

Пост 01-Янв-2016 20:35

[Q] 

aleksey99

--Маленький принц / The Little Prince-- Производство: Франция, On Entertainment, Onyx Films, Orange Studio, Paramount Animation
Год выпуска: 2015 г.
Жанр: мультфильм, фэнтези
Продолжительность: 01:46:55--Мировая премьера: 22 мая 2015
Российская премьера: 24 декабря 2015, «Вольга»--Перевод: Профессиональный (полное дублирование) [Чистый звук]--Режиссер: Марк Осборн / Mark Osborne--В ролях: Рэйчел МакАдамс, Пол Радд, Джеймс Франко, Марион Котийяр, Бенисио Дель Торо, Маккензи Фой, Джефф Бриджес, Венсан Кассель, Пол Джаматти, Рики Джервэйс--Описание: Мир невозможен без фантазии и приключений. По крайней мере в это верит добродушный старик авиатор, по соседству с которым недавно поселилась одна очень педантичная мама со своей прилежной дочкой. Жизнь девочки подчинена строгому учебному плану, в котором время на друзей предусмотрено только следующим летом. Однако этот тщательно выстроенный план трещит по швам, когда в жизнь девочки врывается странный сосед с его невероятными рассказами о Маленьком Принце и далеких звездах. Осталось только починить самолет, и в путь! Так начинается большое путешествие девочки — полное опасностей, волшебства, юмора и настоящей дружбы.-- --Качество видео: HDRip
Контейнер: AVI
Видео кодек: XviD
Аудио кодек: AC3
Видео: 720x304 (2.37:1), 23.976 fps, XviD build 50 ~1560 kbps avg, 0.30 bit/pixel
Аудио: 48 kHz, AC3 Dolby Digital, 2/0 (L,R) ch, ~384 kbps
Cубтитры: отсутствуют.
Общее
Полное имя : H:\Torrent2\Ma1eNk1y.5r1n3s.2015.D.HDRip.1.45GB.avi
Формат : AVI
Формат/Информация : Audio Video Interleave
Размер файла : 1,46 Гбайт
Продолжительность : 1 ч. 46 м.
Общий поток : 1954 Кбит/сек
Программа кодирования : VirtualDubMod 1.5.10.3 | www.virtualdub-fr.org || (build 2550/release)
Видео
Идентификатор : 0
Формат : MPEG-4 Visual
Профиль формата : Advanced [email protected]
Параметр BVOP формата : 2
Параметр QPel формата : Нет
Параметр GMC формата : Без точки перехода
Параметр матрицы формата : Default (MPEG)
Идентификатор кодека : XVID
Идентификатор кодека/Подсказка : XviD
Продолжительность : 1 ч. 46 м.
Битрейт : 1561 Кбит/сек
Ширина : 720 пикселей
Высота : 304 пикселя
Соотношение сторон : 2,35:1
Частота кадров : 23,976 (24000/1001) кадра/сек
Цветовое пространство : YUV
Субдискретизация насыщенности : 4:2:0
Битовая глубина : 8 бит
Тип развёртки : Прогрессивная
Метод сжатия : С потерями
Бит/(Пиксели*Кадры) : 0.297
Размер потока : 1,17 Гбайт (80%)
Библиотека кодирования : XviD 1.2.1 (UTC 2008-12-04)
Аудио
Идентификатор : 1
Формат : AC-3
Формат/Информация : Audio Coding 3
Расширение режима : CM (complete main)
Параметр Endianness формата : Big
Идентификатор кодека : 2000
Продолжительность : 1 ч. 46 м.
Вид битрейта : Постоянный
Битрейт : 384 Кбит/сек
Каналы : 2 канала
Расположение каналов : Front: L R
Частота : 48,0 КГц
Частота кадров : 31,250 кадров/сек (1536 spf)
Метод сжатия : С потерями
Размер потока : 294 Мбайт (20%)
Выравнивание : Разделение по промежуткам
Продолжительность промежутка : 42 мс. (1,00 видеокадр)
Время предзагрузки промежутка : 500 мс.
Трейлер
Внимание присутствуют вставки голосовой и текстовой рекламы.
Download / Скачать

Хотите скачать бесплатно? Зарегистрируйтесь на сайте (ссылка на регистрацию). Pirat.ca - самый быстрый торрент трекер в рунете!

Как скачивать  ·   Что такое торрент  ·   Рейтинг и ограничения

psvcrazy

Морской Волк

Пост 01-Янв-2016 23:12 (спустя 2 часа 36 минут)

[Q] 

Посмотрим посмотрим...
[Профиль]  [ЛС] 

fishman

Корсар

Пост 03-Янв-2016 21:40 (спустя 1 день 22 часа)

[Q] 

283 раза скачан, а отзывов никаких... странно...

_________________
|___|___|___|___|___|___|___|__|__
__|__|__|_Биться головой_|___|___|
|___|___|___|__сюда!!___|___|__|__
__|___|___|___|___|___|___|__|__
[Профиль]  [ЛС] 

Bozo

Флибустьер

Пост 04-Янв-2016 18:30 (спустя 20 часов)

[Q] 

Какая занудная ерунда ИМХО, очень разочаровал
[Профиль]  [ЛС] 

airat85

Корсар

Пост 04-Янв-2016 21:04 (спустя 2 часа 34 минуты)

[Q] 

посмотрим и оценим! трейлер понравился) посмотрим как весь фильм!
[Профиль]  [ЛС] 

nokia_series

Корсар

Пост 05-Янв-2016 14:53 (спустя 17 часов)

[Q] 

Если это по книге мультик, то думаю что европейцы всё переврут. И всё вновь скатится в толерантность и прочий бред.
[Профиль]  [ЛС] 

Thunar

Лоцман

Пост 06-Янв-2016 18:22 (спустя 1 день 3 часа)

[Q] 

726781Какая занудная ерунда ИМХО, очень разочаровал
Это тебе не диснеевская шаблонная штамповка )
[Профиль]  [ЛС] 

Скорпио 1985

Лоцман

Пост 06-Янв-2016 21:52 (спустя 3 часа)

[Q] 

Нормальный детский мультфильм. Со смыслом. Смотрел с 7 летней дочкой. Ей понравился, а это главное.
[Профиль]  [ЛС] 

Valf66

Морской Волк

Пост 07-Янв-2016 20:34 (спустя 22 часа)

[Q] 

Лучше книгу перечитать 10 раз, чем смотреть этот мульт 1 раз.
[Профиль]  [ЛС] 

Pippo48

Корсар

Пост 07-Янв-2016 21:15 (спустя 40 минут)

[Q] 

Нам с женой мультик понравился, трогательный. Те кто его не понимают, наверное забыли в себе ребенка
[Профиль]  [ЛС] 

sqquirrell

Шкипер

Пост 07-Янв-2016 21:55 (спустя 40 минут)

[Q] 

Мультик очень понравился. Безумно понравились , что показали иллюстрации, которые были в книге. Мульт по духу очень близок к нашей, советской аудиосказке.))) Помните? Всем качать!!! Автору респект!!!
[Профиль]  [ЛС] 

Полтос

Флибустьер

Пост 10-Янв-2016 18:37 (спустя 2 дня 20 часов)

[Q] 

На любителя. Книгу не читал, поэтому в этот бред въехать не смог. Основной посыл Питер Пена, оставаться вечным ребёнком - понятен, но смотреть такое в кинотеатре - было бы жалко и денег и времени. Так - только времени...
На любителя На любителя

_________________
Первый закон Прапорщика: Всё что поднимаемо - относительно!)
[Профиль]  [ЛС] 

grosboy

Флибустьер

Пост 14-Янв-2016 11:00 (спустя 3 дня)

[Q] 

На любителя. Ребёнок был доволен.

_________________
Щастье есть - его не может не быть...
[Профиль]  [ЛС] 

Пост 05-Фев-2016 07:46 (спустя 21 день)

Топик был перенесен из форума Новинки (HD|DVD|BD| TV|SAT|PDTV| - Rips) в форум Зарубежные полнометражные мультфильмы
aleksey99
 

mr_7cux

Лоцман

Пост 08-Фев-2016 04:42 (спустя 24 дня)

[Q] 

Мультик - великолепный, давно не видел такой красоты. Наверное самый светлый мультик за несколько лет.
НО данная раздача - ни в коем случае не качать, автор - очень мерзкий и гадкий человек. В светлый и грустный мультик он вставил ублюдочную рекламу казино. Ладно бы субтитры, а так - еще и аудио врезал. Ощущение от мультика не испортил, но все-таки...
В его случае банкир победил. Отказать
[Профиль]  [ЛС] 
Показать сообщения:    
Ответить на тему

Текущее время: Сегодня 22:10

Часовой пояс: GMT + 4



Вы не можете начинать темы
Вы не можете отвечать на сообщения
Вы не можете редактировать свои сообщения
Вы не можете удалять свои сообщения
Вы не можете голосовать в опросах
Вы не можете прикреплять файлы к сообщениям
Вы не можете скачивать файлы

▼ Вниз