ML
     
  Уважаемый Гость!
Вы можете поддержать проект и зарегистрироваться у наших партнеров - онлайн-стратегия MyLands. При регистрации в игре Вы получите код, который сможете активировать после регистрации на pirat.ca и получить 1000 дублонов.

Ваш код:
ee1288b6f7c09d9d2cb2a0f972aba30460ce9333
 
     

Снежная битва / La guerre des tuques 3D (Жан-Франсуа Пуле, Франсуа Бриссон / Jean-François Pouliot, François Brisson) [2015 г., мультфильм, WEBRip] Dub [Чистый звук]

Ответить на тему
 
Автор
Сообщение

Пост 02-Янв-2016 08:50

[Q] 

aleksey99

--Снежная битва / La guerre des tuques 3D-- Производство: Канада, CarpeDiem Film & TV
Год выпуска: 2015 г.
Жанр: мультфильм
Продолжительность: 01:22:00--Мировая премьера: 13 ноября 2015
Российская премьера: 10 декабря 2015, «Top Film Distribution»--Перевод: Профессиональный (полное дублирование) [Чистый звук]--Режиссер: Жан-Франсуа Пуле, Франсуа Бриссон / Jean-François Pouliot, François Brisson--В ролях: Анджела Галуппо, Марилуп Вульф, Люсинда Дэвис, Николас Савард-Хербер, Софи Кадьо, Энн Касабонн, Хелен Буржуа Леклерк, Росс Линч, Катрин Трюдо, Жильдор Руа--Описание: Чтобы развлечься во время зимних каникул, детвора из маленькой деревни решает устроить грандиозное снежное побоище между двумя командами.-- --Качество видео: WEBRip
Контейнер: AVI
Видео кодек: XviD
Аудио кодек: AC3
Видео: 720x304 (2.37:1), 23.999 fps, XviD build 50 ~1929 kbps avg, 0.37 bit/pixel
Аудио: 48 kHz, AC3 Dolby Digital, 2/0 (L,R) ch, ~448 kbps
Cубтитры: отсутствуют
Общее
Полное имя : H:\Torrent2\Snegovie.Voiny.2015.D.WEBRip.14OOMB.avi
Формат : AVI
Формат/Информация : Audio Video Interleave
Размер файла : 1,37 Гбайт
Продолжительность : 1 ч. 21 м.
Общий поток : 2387 Кбит/сек
Программа кодирования : VirtualDubMod 1.5.10.2 (build 2540/release)
Библиотека кодирования : VirtualDubMod build 2540/release
Видео
Идентификатор : 0
Формат : MPEG-4 Visual
Профиль формата : Advanced [email protected]
Параметр BVOP формата : 2
Параметр QPel формата : Нет
Параметр GMC формата : Без точки перехода
Параметр матрицы формата : Default (MPEG)
Идентификатор кодека : XVID
Идентификатор кодека/Подсказка : XviD
Продолжительность : 1 ч. 21 м.
Битрейт : 1930 Кбит/сек
Ширина : 720 пикселей
Высота : 304 пикселя
Соотношение сторон : 2,35:1
Частота кадров : 24,000 кадра/сек
Цветовое пространство : YUV
Субдискретизация насыщенности : 4:2:0
Битовая глубина : 8 бит
Тип развёртки : Прогрессивная
Метод сжатия : С потерями
Бит/(Пиксели*Кадры) : 0.367
Размер потока : 1,11 Гбайт (81%)
Библиотека кодирования : XviD 1.2.1 (UTC 2008-12-04)
Аудио
Идентификатор : 1
Формат : AC-3
Формат/Информация : Audio Coding 3
Расширение режима : CM (complete main)
Параметр Endianness формата : Big
Идентификатор кодека : 2000
Продолжительность : 1 ч. 21 м.
Вид битрейта : Постоянный
Битрейт : 448 Кбит/сек
Каналы : 2 канала
Расположение каналов : Front: L R
Частота : 48,0 КГц
Частота кадров : 31,250 кадров/сек (1536 spf)
Метод сжатия : С потерями
Размер потока : 263 Мбайт (19%)
Выравнивание : Разделение по промежуткам
Продолжительность промежутка : 42 мс. (1,00 видеокадр)
Время предзагрузки промежутка : 500 мс.
Трейлер
Download / Скачать

Хотите скачать бесплатно? Зарегистрируйтесь на сайте (ссылка на регистрацию). Pirat.ca - самый быстрый торрент трекер в рунете!

Как скачивать  ·   Что такое торрент  ·   Рейтинг и ограничения

bolin

Флибустьер

Пост 02-Янв-2016 22:10 (спустя 13 часов)

[Q] 

Спасибо заберу малышне!
[Профиль]  [ЛС] 

kinstintin

Гроза морей

Пост 02-Янв-2016 22:13 (спустя 2 минуты)

[Q] 

Спасибо!!!
Раздающему респект!
[Профиль]  [ЛС] 

Maks_e

Корсар

69

Пост 03-Янв-2016 06:14 (спустя 8 часов)

[Q] 

Спасибо!!! Супер!
[Профиль]  [ЛС] 

Dmitriy1881

Корсар

Пост 03-Янв-2016 08:24 (спустя 2 часа 9 минут)

[Q] 

спасибо поглядим!!!!!!!!!
[Профиль]  [ЛС] 

Jek@

Легенда

Пост 03-Янв-2016 09:41 (спустя 1 час 17 минут)

[Q] 

Спасибо!!! .
[Профиль]  [ЛС] 

servind

Боцман

Пост 03-Янв-2016 21:30 (спустя 11 часов)

[Q] 

Спасибо!!! Посмотрим
[Профиль]  [ЛС] 

Dommi

Шкипер

Пост 06-Янв-2016 00:26 (спустя 2 дня 2 часа)

[Q] 

Спасибо!!! 111111111111111111
[Профиль]  [ЛС] 

kosmo5

Шкипер

Пост 08-Янв-2016 00:45 (спустя 2 дня)

[Q] 

посмотртм с ребёнком Спасибо

_________________
[Профиль]  [ЛС] 

sergein

Корсар

Пост 08-Янв-2016 00:54 (спустя 9 минут)

[Q] 

а я и сам с удовольствием погляжу раздающему уважуха!
[Профиль]  [ЛС] 

draven81

Лоцман

Пост 11-Янв-2016 20:35 (спустя 3 дня)

[Q] 

= Спасибо!!! Пиратка рулит!
[Профиль]  [ЛС] 

grosboy

Флибустьер

Пост 12-Янв-2016 11:04 (спустя 14 часов)

[Q] 

Обыкновенный мульт, не особо смешной, ни чем не отличающийся от других американских мультов, с интересным финалом. На раз глянуть пойдет.

_________________
Щастье есть - его не может не быть...
[Профиль]  [ЛС] 

Пост 05-Фев-2016 07:45 (спустя 23 дня)

Топик был перенесен из форума Новинки (HD|DVD|BD| TV|SAT|PDTV| - Rips) в форум Зарубежные полнометражные мультфильмы
aleksey99
 
Показать сообщения:    
Ответить на тему

Текущее время: Сегодня 18:19

Часовой пояс: GMT + 4



Вы не можете начинать темы
Вы не можете отвечать на сообщения
Вы не можете редактировать свои сообщения
Вы не можете удалять свои сообщения
Вы не можете голосовать в опросах
Вы не можете прикреплять файлы к сообщениям
Вы не можете скачивать файлы

▼ Вниз