ML
     
  Уважаемый Гость!
Вы можете поддержать проект и зарегистрироваться у наших партнеров - онлайн-стратегия MyLands. При регистрации в игре Вы получите код, который сможете активировать после регистрации на pirat.ca и получить 1000 дублонов.

Ваш код:
34514219cfad5497a1822ecc1269bea77988f9aa
 
     

Волшебное королевство Щелкунчика / The Nutcracker Sweet (Эдуардо Шульдт / Eduardo Schuldt) [2015 г., мультфильм, WEB-DLRip] Dub [Чистый звук] + Original (Eng)

Ответить на тему
 
Автор
Сообщение

Пост 20-Янв-2016 19:46

[Q] 

aleksey99

--Волшебное королевство Щелкунчика / The Nutcracker Sweet-- Производство: Перу, Aronnax Animation Studios, Verité Entertainment
Год выпуска: 2015 г.
Жанр: мультфильм
Продолжительность: 01:25:02--Мировая премьера: 3 июня 2015
Российская премьера: 31 декабря 2015, «Люксор»--Перевод: Профессиональный (полное дублирование) [Чистый звук]
Оригинальный аудиопоток: английский--Режиссер: Эдуардо Шульдт / Eduardo Schuldt--В ролях: Алисия Сильверстоун, Эдвард Аснер, Дрэйк Белл, Карен Страссман, Рик Зефф, Грант Джордж, Уэнди Ли, Кирк Торнтон--Описание: Сестра Мари и ее брат Фритц получают от своего крестного праздничный подарок – забавного и трогательного деревянного Щелкунчика. Но в рождественскую ночь начинает происходить настоящая магия, когда оживут не только «хорошие» игрушки, но и те, что грозят опасностью…-- --Качество видео: WEB-DLRip
Контейнер: AVI
Видео кодек: XviD
Аудио кодек: AC3
Видео: 720x400 (1.80:1), 23.976 fps, XviD build 50 ~1998 kbps avg, 0.29 bit/pixel
Аудио 1: 48 kHz, AC3 Dolby Digital, 2/0 (L,R) ch, ~192 kbps RUS
Аудио 2: 48 kHz, AC3 Dolby Digital, 3/2 (L,C,R,l,r) + LFE ch, ~384 kbps ENG
Cубтитры: отсутствуют
Общее
Полное имя : H:\Torrent2\8ol6eBn0e.K0r0le8sTv0.S4elKuN4iKa.2015.D.WEB-DLRip.avi
Формат : AVI
Формат/Информация : Audio Video Interleave
Размер файла : 1,45 Гбайт
Продолжительность : 1 ч. 20 м.
Общий поток : 2589 Кбит/сек
Программа кодирования : VirtualDubMod 1.5.10.3 | www.virtualdub-fr.org || (build 2550/release)
Библиотека кодирования : VirtualDubMod build 2550/release
Видео
Идентификатор : 0
Формат : MPEG-4 Visual
Профиль формата : Advanced [email protected]
Параметр BVOP формата : 2
Параметр QPel формата : Нет
Параметр GMC формата : Без точки перехода
Параметр матрицы формата : Default (MPEG)
Идентификатор кодека : XVID
Идентификатор кодека/Подсказка : XviD
Продолжительность : 1 ч. 20 м.
Битрейт : 1999 Кбит/сек
Ширина : 720 пикселей
Высота : 400 пикселей
Соотношение сторон : 16:9
Частота кадров : 23,976 (24000/1001) кадра/сек
Цветовое пространство : YUV
Субдискретизация насыщенности : 4:2:0
Битовая глубина : 8 бит
Тип развёртки : Прогрессивная
Метод сжатия : С потерями
Бит/(Пиксели*Кадры) : 0.289
Размер потока : 1,12 Гбайт (77%)
Библиотека кодирования : XviD 1.2.1 (UTC 2008-12-04)
Аудио #1
Идентификатор : 1
Формат : AC-3
Формат/Информация : Audio Coding 3
Расширение режима : CM (complete main)
Параметр Endianness формата : Big
Идентификатор кодека : 2000
Продолжительность : 1 ч. 20 м.
Вид битрейта : Постоянный
Битрейт : 192 Кбит/сек
Каналы : 2 канала
Расположение каналов : Front: L R
Частота : 48,0 КГц
Частота кадров : 31,250 кадров/сек (1536 spf)
Метод сжатия : С потерями
Размер потока : 110 Мбайт (7%)
Выравнивание : Разделение по промежуткам
Продолжительность промежутка : 42 мс. (1,00 видеокадр)
Время предзагрузки промежутка : 500 мс.
Аудио #2
Идентификатор : 2
Формат : AC-3
Формат/Информация : Audio Coding 3
Расширение режима : CM (complete main)
Параметр Endianness формата : Big
Идентификатор кодека : 2000
Продолжительность : 1 ч. 20 м.
Вид битрейта : Постоянный
Битрейт : 384 Кбит/сек
Каналы : 6 каналов
Расположение каналов : Front: L C R, Side: L R, LFE
Частота : 48,0 КГц
Частота кадров : 31,250 кадров/сек (1536 spf)
Метод сжатия : С потерями
Размер потока : 221 Мбайт (15%)
Выравнивание : Разделение по промежуткам
Продолжительность промежутка : 42 мс. (1,00 видеокадр)
Время предзагрузки промежутка : 500 мс.
ТрейлерВнимание присутствуют вставки голосовой и текстовой рекламы.
Download / Скачать

Хотите скачать бесплатно? Зарегистрируйтесь на сайте (ссылка на регистрацию). Pirat.ca - самый быстрый торрент трекер в рунете!

Как скачивать  ·   Что такое торрент  ·   Рейтинг и ограничения

bolin

Флибустьер

Пост 20-Янв-2016 23:40 (спустя 3 часа)

[Q] 

Забираю малышам! Автору респект!
[Профиль]  [ЛС] 

rebel2

Корсар

Пост 21-Янв-2016 01:59 (спустя 2 часа 18 минут)

[Q] 

Спасибо!!!
[Профиль]  [ЛС] 

nikolay.412

Корсар

Пост 21-Янв-2016 18:08 (спустя 16 часов)

[Q] 

Лови бочку
[Профиль]  [ЛС] 

ss80

Флибустьер

36

Пост 21-Янв-2016 19:31 (спустя 1 час 22 минуты)

[Q] 

Спасибо!!!
[Профиль]  [ЛС] 

ГИППАРРД

Морской Волк

2

Пост 06-Мар-2016 16:05 (спустя 1 месяц 15 дней)

[Q] 

Благадарствуй за фильмец ща скучаю всей семьей рассмотрим и посмотрим!!!!!
[Профиль]  [ЛС] 

zlotosalien

Флибустьер

Пост 06-Мар-2016 16:18 (спустя 13 минут)

[Q] 

Графика плохая! Даже в первой части Игрушек намного красивее, а вышла она в 1995 году!
[Профиль]  [ЛС] 

ягжин

Гроза морей

Пост 07-Мар-2016 11:18 (спустя 18 часов)

[Q] 

Для детей! Спасибо!
[Профиль]  [ЛС] 

Пост 07-Мар-2016 19:03 (спустя 7 часов)

Топик был перенесен из форума Новинки (HD|DVD|BD| TV|SAT|PDTV| - Rips) в форум Зарубежные полнометражные мультфильмы
aleksey99
 
Показать сообщения:    
Ответить на тему

Текущее время: Сегодня 07:52

Часовой пояс: GMT + 4



Вы не можете начинать темы
Вы не можете отвечать на сообщения
Вы не можете редактировать свои сообщения
Вы не можете удалять свои сообщения
Вы не можете голосовать в опросах
Вы не можете прикреплять файлы к сообщениям
Вы не можете скачивать файлы

▼ Вниз