ML
     
  Уважаемый Гость!
Вы можете поддержать проект и зарегистрироваться у наших партнеров - онлайн-стратегия MyLands. При регистрации в игре Вы получите код, который сможете активировать после регистрации на pirat.ca и получить 1000 дублонов.

Ваш код:
fe4e93b754a7c2b306fcfc8bc32532ea1cf59d3b
 
     

Медведи Буни: Таинственная зима / Xiong Chumo Zhi Xueling Xiongfeng (Динг Лианг, Фуюань Лью / Ding Liang, Fuyuan Liu) [2015 г., мультфильм, комедия, WEB-DLRip] Dub [Чистый звук]

Ответить на тему
 
Автор
Сообщение

Пост 11-Мар-2016 18:59

[Q] 

aleksey99

--Медведи Буни: Таинственная зима / Xiong Chumo Zhi Xueling Xiongfeng-- Производство: Китай, Warner Bros., Le Vision Pictures (Tianjin) Co
Год выпуска: 2015 г.
Жанр: мультфильм, комедия
Продолжительность: 01:35:47--Мировая премьера: 30 января 2015
Российская премьера: 11 февраля 2016, «Top Film Distribution»--Перевод: Профессиональный (полное дублирование) [Чистый звук]--Режиссер: Динг Лианг, Фуюань Лью / Ding Liang, Fuyuan Liu--В ролях: Дженни Энсел, Рик Джей Глен, Этан Кили, Ютан Менг, Че Деверуа Скотт Райнхарт, Яодонг Сан, Шиван Ламсден, Пол «Макс» Райнхарт, Джастин Джозеф Вилер--Описание: В лесу бушует невиданная снежная буря, когда на Сосновой горе неожиданно появляется загадочное существо. Вслед за ним прибывают несколько незнакомцев, которые устраивают настоящий переполох, пытаясь поймать сказочного монстра. Они уверены, что непонятный зверь собирается уничтожить Сосновую гору.
Увлекательная сказка о знакомстве с новыми приятелями, проверке на прочность старых друзей, и объединении ради спасения родного дома.-- --Качество видео: WEB-DLRip
Контейнер: AVI
Видео кодек: XviD
Аудио кодек: AC3
Видео: 720x304 (2.37:1), 24.000 fps, XviD build 50 ~1841 kbps avg, 0.35 bit/pixel
Аудио: 48 kHz, AC3 Dolby Digital, 2/0 (L,R) ch, ~192 kbps
Cубтитры: отсутствуют.
Общее
Полное имя : H:\Torrent2\Medvedi.Byni.2015.D.WEBDLRip.avi
Формат : AVI
Формат/Информация : Audio Video Interleave
Размер файла : 1,37 Гбайт
Продолжительность : 1 ч. 35 м.
Общий поток : 2043 Кбит/сек
Программа кодирования : VirtualDubMod 1.5.10.3 | www.virtualdub-fr.org || (build 2550/release)
Библиотека кодирования : VirtualDubMod build 2550/release
Видео
Идентификатор : 0
Формат : MPEG-4 Visual
Профиль формата : Advanced [email protected]
Параметр BVOP формата : 2
Параметр QPel формата : Нет
Параметр GMC формата : Без точки перехода
Параметр матрицы формата : Default (MPEG)
Идентификатор кодека : XVID
Идентификатор кодека/Подсказка : XviD
Продолжительность : 1 ч. 35 м.
Битрейт : 1841 Кбит/сек
Ширина : 720 пикселей
Высота : 304 пикселя
Соотношение сторон : 2,35:1
Частота кадров : 24,000 кадра/сек
Цветовое пространство : YUV
Субдискретизация насыщенности : 4:2:0
Битовая глубина : 8 бит
Тип развёртки : Прогрессивная
Метод сжатия : С потерями
Бит/(Пиксели*Кадры) : 0.351
Размер потока : 1,23 Гбайт (90%)
Библиотека кодирования : XviD 1.2.1 (UTC 2008-12-04)
Аудио
Идентификатор : 1
Формат : AC-3
Формат/Информация : Audio Coding 3
Расширение режима : CM (complete main)
Параметр Endianness формата : Big
Идентификатор кодека : 2000
Продолжительность : 1 ч. 35 м.
Вид битрейта : Постоянный
Битрейт : 192 Кбит/сек
Каналы : 2 канала
Расположение каналов : Front: L R
Частота : 48,0 КГц
Битовая глубина : 16 бит
Метод сжатия : С потерями
Размер потока : 132 Мбайт (9%)
Выравнивание : Разделение по промежуткам
Продолжительность промежутка : 42 мс. (1,00 видеокадр)
Время предзагрузки промежутка : 500 мс.
Трейлер
Download / Скачать

Хотите скачать бесплатно? Зарегистрируйтесь на сайте (ссылка на регистрацию). Pirat.ca - самый быстрый торрент трекер в рунете!

Как скачивать  ·   Что такое торрент  ·   Рейтинг и ограничения

bolin

Флибустьер

Пост 11-Мар-2016 23:17 (спустя 4 часа)

[Q] 

Забираю малышам! Надеюсь хоть тут нет КАЗИНО
[Профиль]  [ЛС] 

ягжин

Гроза морей

Пост 12-Мар-2016 00:17 (спустя 59 минут)

[Q] 

Клево! Забираю!
[Профиль]  [ЛС] 

platon18

Гроза морей

Пост 12-Мар-2016 08:11 (спустя 7 часов)

[Q] 

Китай научился мульткомедии снимать????
[Профиль]  [ЛС] 

zlotosalien

Флибустьер

Пост 12-Мар-2016 11:12 (спустя 3 часа)

[Q] 

739876Китай научился мульткомедии снимать????
И воровать чужие идеи! Как "Кунг-Фу кролик")...А здесь явно прослеживается "Медведи соседи".
[Профиль]  [ЛС] 

Barskavkaz

Корсар

Пост 12-Мар-2016 13:53 (спустя 2 часа 40 минут)

[Q] 

Интересный мультик то хоть?

_________________
Д.Тк
[Профиль]  [ЛС] 

Лукинофф2

Штурман

Пост 18-Мар-2016 21:34 (спустя 6 дней)

[Q] 

739888
739876Китай научился мульткомедии снимать????
И воровать чужие идеи! Как "Кунг-Фу кролик")...А здесь явно прослеживается "Медведи соседи".
ИМХО, лучше так, чем вообще никак.
[Профиль]  [ЛС] 

nexoo

Корсар

Пост 21-Мар-2016 21:58 (спустя 3 дня)

[Q] 

Как качество? Кто смотрел отпишите.
[Профиль]  [ЛС] 

Саня 525

Морской Волк

Пост 22-Мар-2016 21:26 (спустя 23 часа)

[Q] 

Возьму для мелкого. Спасибо! Лови бочку
[Профиль]  [ЛС] 

zlotosalien

Флибустьер

Пост 26-Мар-2016 13:26 (спустя 3 дня)

[Q] 

741051
739888
739876Китай научился мульткомедии снимать????
И воровать чужие идеи! Как "Кунг-Фу кролик")...А здесь явно прослеживается "Медведи соседи".
ИМХО, лучше так, чем вообще никак.
Лучше самим что то путное снять, а не копировать чужое!
[Профиль]  [ЛС] 

sergein

Корсар

Пост 02-Апр-2016 15:37 (спустя 7 дней)

[Q] 

деткам на выходные может и сойдет...
[Профиль]  [ЛС] 

Пост 14-Апр-2016 18:07 (спустя 12 дней)

Топик был перенесен из форума Новинки (HD|DVD|BD| TV|SAT|PDTV| - Rips) в форум Зарубежные полнометражные мультфильмы
aleksey99
 

Maks_e

Корсар

69

Пост 03-Июн-2016 19:00 (спустя 2 месяца 1 день)

[Q] 

Спасибо!!! Супер!
[Профиль]  [ЛС] 
Показать сообщения:    
Ответить на тему

Текущее время: Сегодня 14:27

Часовой пояс: GMT + 4



Вы не можете начинать темы
Вы не можете отвечать на сообщения
Вы не можете редактировать свои сообщения
Вы не можете удалять свои сообщения
Вы не можете голосовать в опросах
Вы не можете прикреплять файлы к сообщениям
Вы не можете скачивать файлы

▼ Вниз