ML
     
  Уважаемый Гость!
Вы можете поддержать проект и зарегистрироваться у наших партнеров - онлайн-стратегия MyLands. При регистрации в игре Вы получите код, который сможете активировать после регистрации на pirat.ca и получить 1000 дублонов.

Ваш код:
a01a592a88af5f9996a6d1baec61b18a1769954d
 
     

Лунный флаг / Capture the Flag (Энрике Гато / Enrique Gato) [2015 г., мультфильм, комедия, приключения, HDRip] DVO [den904 & DeadSno]

Ответить на тему
 
Автор
Сообщение

Пост 11-Мар-2016 19:17

[Q] 

aleksey99

--Лунный флаг / Capture the Flag-- Производство: Испания / 4 Cats Pictures, Rockets La PelГcula, Los, Telefonica Studios…
Год выпуска: 2015 г.
Жанр: мультфильм, комедия, приключения
Продолжительность: 01:34:38--Мировая премьера: 28 августа 2015
Российская премьера: 24 марта 2016, «Централ Партнершип»--Перевод: Любительский (двухголосый, закадровый) [den904 & DeadSno]--Режиссер: Энрике Гато / Enrique Gato--В ролях: Дэни Ровира, Мишель Хеннер, Карме Калвелл, Хавьер Балас, Камилло Гарсия, Тони Мора, Марта Барбара, Фернандо Гарсия Кабрера, Ксавьер Касан, Ориол Тарраго--Описание: 12-летний Майк вместе со своими друзьями пытается спасти Луну от захвата злобным миллиардером Карсоном. Но для этого надо всего лишь… полететь в космос. Удастся ли обыкновенным подросткам пробраться на космическую базу, прилуниться и победить коварного злодея? Для этого понадобится помощь друзей, верной домашней ящерицы и родного деда. Большое космическое приключение, объединившее всю семью, начинается!-- --Качество видео: HDRip
Контейнер: AVI
Видео кодек: XviD
Аудио кодек: AC3
Видео: 720x304 (2.37:1), 23.976 fps, XviD build 50 ~1990 kbps avg, 0.38 bit/pixel
Аудио: 48 kHz, AC3 Dolby Digital, 2/0 (L,R) ch, ~192 kbps
Cубтитры: отсутствуют.
Общее
Полное имя : H:\Torrent2\1uNniY.f1aG.2015.L2.HDRip.1.45GB.avi
Формат : AVI
Формат/Информация : Audio Video Interleave
Размер файла : 1,46 Гбайт
Продолжительность : 1 ч. 35 м.
Общий поток : 2192 Кбит/сек
Программа кодирования : VirtualDubMod 1.5.10.3 | www.virtualdub-fr.org || (build 2550/release)
Библиотека кодирования : VirtualDubMod build 2550/release
Видео
Идентификатор : 0
Формат : MPEG-4 Visual
Профиль формата : Advanced [email protected]
Параметр BVOP формата : 2
Параметр QPel формата : Нет
Параметр GMC формата : Без точки перехода
Параметр матрицы формата : Default (MPEG)
Идентификатор кодека : XVID
Идентификатор кодека/Подсказка : XviD
Продолжительность : 1 ч. 35 м.
Битрейт : 1991 Кбит/сек
Ширина : 720 пикселей
Высота : 304 пикселя
Соотношение сторон : 2,35:1
Частота кадров : 23,976 кадра/сек
Цветовое пространство : YUV
Субдискретизация насыщенности : 4:2:0
Битовая глубина : 8 бит
Тип развёртки : Прогрессивная
Метод сжатия : С потерями
Бит/(Пиксели*Кадры) : 0.379
Размер потока : 1,32 Гбайт (91%)
Библиотека кодирования : XviD 1.2.1 (UTC 2008-12-04)
Аудио
Идентификатор : 1
Формат : AC-3
Формат/Информация : Audio Coding 3
Расширение режима : CM (complete main)
Параметр Endianness формата : Big
Идентификатор кодека : 2000
Продолжительность : 1 ч. 35 м.
Вид битрейта : Постоянный
Битрейт : 192 Кбит/сек
Каналы : 2 канала
Расположение каналов : Front: L R
Частота : 48,0 КГц
Битовая глубина : 16 бит
Метод сжатия : С потерями
Размер потока : 131 Мбайт (9%)
Выравнивание : Разделение по промежуткам
Продолжительность промежутка : 42 мс. (1,00 видеокадр)
Время предзагрузки промежутка : 500 мс.
Трейлер
Внимание присутствуют вставки голосовой и текстовой рекламы.
Download / Скачать

Хотите скачать бесплатно? Зарегистрируйтесь на сайте (ссылка на регистрацию). Pirat.ca - самый быстрый торрент трекер в рунете!

Как скачивать  ·   Что такое торрент  ·   Рейтинг и ограничения

bolin

Флибустьер

Пост 11-Мар-2016 23:16 (спустя 3 часа)

[Q] 

Спасибо за раздачу!
Начинаю ненавидеть казино!
[Профиль]  [ЛС] 

ягжин

Гроза морей

Пост 12-Мар-2016 00:19 (спустя 1 час 2 минуты)

[Q] 

Детям! Клево!
[Профиль]  [ЛС] 

Barskavkaz

Корсар

Пост 12-Мар-2016 14:05 (спустя 13 часов)

[Q] 

а когда перевод будет?

_________________
Д.Тк
[Профиль]  [ЛС] 

dimannds

Морской Волк

73

Пост 13-Мар-2016 19:10 (спустя 1 день 5 часов)

[Q] 

спасибо Спасибо!!!
[Профиль]  [ЛС] 

Skat.56

Гроза морей

448

Пост 16-Мар-2016 23:54 (спустя 3 дня)

[Q] 

739834Начинаю ненавидеть казино!
Это Все ЗОГ придумали дабы вызывать и хомячков рвотные позывы при восприятии кодовой фразы"Джой казино"
[Профиль]  [ЛС] 

platon18

Гроза морей

Пост 17-Мар-2016 09:01 (спустя 9 часов)

[Q] 

шлаковый мульт
[Профиль]  [ЛС] 

grosboy

Флибустьер

Пост 04-Апр-2016 17:56 (спустя 18 дней)

[Q] 

Не смотреть мульты надо только с дубляжом.

_________________
Щастье есть - его не может не быть...
[Профиль]  [ЛС] 

Пост 14-Апр-2016 18:08 (спустя 10 дней)

Топик был перенесен из форума Новинки (HD|DVD|BD| TV|SAT|PDTV| - Rips) в форум Зарубежные полнометражные мультфильмы
aleksey99
 

Раемия

Флибустьер

Пост 17-Апр-2016 23:45 (спустя 13 дней)

[Q] 

Ну один разок глянуть можно! Спасибо!!!

_________________
Любите кроликов!!!…и они отплатят вам тем же…
[Профиль]  [ЛС] 
Показать сообщения:    
Ответить на тему

Текущее время: Сегодня 09:49

Часовой пояс: GMT + 4



Вы не можете начинать темы
Вы не можете отвечать на сообщения
Вы не можете редактировать свои сообщения
Вы не можете удалять свои сообщения
Вы не можете голосовать в опросах
Вы не можете прикреплять файлы к сообщениям
Вы не можете скачивать файлы

▼ Вниз