ML
     
  Уважаемый Гость!
Вы можете поддержать проект и зарегистрироваться у наших партнеров - онлайн-стратегия MyLands. При регистрации в игре Вы получите код, который сможете активировать после регистрации на pirat.ca и получить 1000 дублонов.

Ваш код:
8b752b428cf60a012c159dcae592cd1392170115
 
     

Кот в сапогах / Nagagutsu o haita neko (Кимио Ябуки / Kimio Yabuki) [1969 г., мультфильм, фэнтези, мелодрама, комедия, приключения, семейный, DVDRip] Dub + MVO

Ответить на тему
 
Автор
Сообщение

Пост 16-Мар-2016 12:25

[Q] 

somik

Легенда

-Кот в сапогах / Nagagutsu o haita neko-- Производство: Япония, Toei Animation, Toei Doga
Режиссер: Кимио Ябуки / Kimio Yabuki
Жанр: мультфильм, фэнтези, мелодрама, комедия, приключения, семейный
Год выпуска: 1969 г.
Продолжительность: 01:20:07
Мировая премьера: 18 марта 1969
Перевод: Профессиональный (полное дублирование) [Киностудия "Союзмультфильм"]
Перевод 2: Профессиональный (многоголосый, закадровый) [MC Ent.]
Оригинальный аудиопоток: Японский
Роли озвучивали: Георгий Вицин, Тамара Дмитриева, Роза Макагонова, Степан Бубнов, Клара Румянова-Описание: Никогда не унывающий, всегда готовый к проказам и острый на язык кот по имени Перро впадает в немилость могущественного кошачьего властелина, который отправляет в погоню за ним своих лучших агентов. Но это только начало головокружительных приключений всеми любимого Кота в сапогах! Ещё ему предстоит отправиться в бой вместе с армией мышиного короля, одолеть страшного людоеда Люцифера, сделать из бедного парня настоящего маркиза и женить его на принцессе!-IMDB КиноПоиск
Качество видео: DVDRip
Контейнер: AVI
Видео кодек: XviD
Аудио кодек: AC3
Видео: Video: 704x304 (2.32:1), 23.976 fps, XviD build 64 ~2078 kbps avg, 0.41 bit/pixel
Аудио: Audio #1: 48 kHz, AC3 Dolby Digital, 2/0 (L,R) ch, ~128 kbps
Аудио #2: Audio #2: 48 kHz, AC3 Dolby Digital, 3/2 (L,C,R,l,r) + LF
Cубтитры: отсутствуют
Бедный юноша Пьер и принцесса Роза полюбили друг друга, но на их пути множество преград, и самая опасная из них — злой, ужасный Люцифер, всемогущий волшебник, властитель Ада, решивший жениться на красавице!
Хорошо, что у Пьера и Розы нашелся настоящий друг, веселый и находчивый, хитрый и храбрый кот Перро. Никто и ничто не может I помешать ему, разве что преследующие его коты-наемные убийцы…
У меня в коллекции есть версия с полным (включая надписи) дублированием "Союзмультфильма", но снимал с VHS, и изображение проигрывает. somik
Формат : AVI
Формат/Информация : Audio Video Interleave
Размер файла : 1,46 Гбайт
Продолжительность : 1 ч. 20 м.
Общий поток : 2606 Кбит/сек
Режиссёр : Deep Fusion
Программа кодирования : VirtualDubMod 1.5.10.3 | www.virtualdub-fr.org || (build 2550/release)
Примечание : Релиз от: Rip Studio
Видео
Идентификатор : 0
Формат : MPEG-4 Visual
Профиль формата : Advanced [email protected]
Параметр BVOP формата : 1
Параметр QPel формата : Нет
Параметр GMC формата : Без точки перехода
Параметр матрицы формата : Выборочная
Идентификатор кодека : XVID
Идентификатор кодека/Подсказка : XviD
Продолжительность : 1 ч. 20 м.
Битрейт : 2080 Кбит/сек
Ширина : 704 пикселя
Высота : 304 пикселя
Соотношение сторон : 2,35:1
Частота кадров : 23,976 (24000/1001) кадра/сек
Цветовое пространство : YUV
Субдискретизация насыщенности : 4:2:0
Битовая глубина : 8 бит
Тип развёртки : Прогрессивная
Метод сжатия : С потерями
Бит/(Пиксели*Кадры) : 0.405
Размер потока : 1,16 Гбайт (80%)
Библиотека кодирования : XviD 64
Аудио #1
Идентификатор : 1
Формат : AC-3
Формат/Информация : Audio Coding 3
Расширение режима : CM (complete main)
Параметр Endianness формата : Big
Идентификатор кодека : 2000
Продолжительность : 1 ч. 20 м.
Вид битрейта : Постоянный
Битрейт : 128 Кбит/сек
Каналы : 2 канала
Расположение каналов : Front: L R
Частота : 48,0 КГц
Частота кадров : 31,250 кадров/сек (1536 spf)
Метод сжатия : С потерями
Размер потока : 73,3 Мбайт (5%)
Выравнивание : Разделение по промежуткам
Продолжительность промежутка : 42 мс. (1,00 видеокадр)
Время предзагрузки промежутка : 500 мс.
Аудио #2
Идентификатор : 2
Формат : AC-3
Формат/Информация : Audio Coding 3
Расширение режима : CM (complete main)
Параметр Endianness формата : Big
Идентификатор кодека : 2000
Продолжительность : 1 ч. 20 м.
Вид битрейта : Постоянный
Битрейт : 384 Кбит/сек
Каналы : 6 каналов
Расположение каналов : Front: L C R, Side: L R, LFE
Частота : 48,0 КГц
Частота кадров : 31,250 кадров/сек (1536 spf)
Метод сжатия : С потерями
Размер потока : 220 Мбайт (15%)
Выравнивание : Разделение по промежуткам
Продолжительность промежутка : 42 мс. (1,00 видеокадр)
Время предзагрузки промежутка : 500 мс.
Download / Скачать

Хотите скачать бесплатно? Зарегистрируйтесь на сайте (ссылка на регистрацию). Pirat.ca - самый быстрый торрент трекер в рунете!

Как скачивать  ·   Что такое торрент  ·   Рейтинг и ограничения

somik ®

Легенда

26680

Пост 16-Мар-2016 12:27 (спустя 2 минуты)

[Q] 

Фильм, конечно, старый, но отличный, а дубляж "Союзмультфильма" восхищает. На любителя

_________________
Всё когда-нибудь уже было... В интернете!
[Профиль]  [ЛС] 

Пост 16-Мар-2016 13:40 (спустя 1 час 12 минут)

Топик был перенесен из форума Мультфильмы (Трюм) в форум Зарубежные полнометражные мультфильмы
erchine
 
Показать сообщения:    
Ответить на тему

Текущее время: Сегодня 06:18

Часовой пояс: GMT + 4



Вы не можете начинать темы
Вы не можете отвечать на сообщения
Вы не можете редактировать свои сообщения
Вы не можете удалять свои сообщения
Вы не можете голосовать в опросах
Вы не можете прикреплять файлы к сообщениям
Вы не можете скачивать файлы

▼ Вниз