ML
     
  Уважаемый Гость!
Вы можете поддержать проект и зарегистрироваться у наших партнеров - онлайн-стратегия MyLands. При регистрации в игре Вы получите код, который сможете активировать после регистрации на pirat.ca и получить 1000 дублонов.

Ваш код:
a978488e62322cd72e113ab723b8a7fdc10eb9b9
 
     

Джек в стране чудес / ジャックと豆の木 / Jack to Mame no Ki / Jack and the Beanstalk (Гисабуро Сугии / Gisaburo Sugii) [1974 г., музыкальная фантазия, DVDRip] Dub + Dub

Ответить на тему
 
Автор
Сообщение

Пост 16-Мар-2016 14:15

[Q] 

somik

Легенда

-Джек в стране чудес / ジャックと豆の木 / Jack to Mame no Ki / Jack and the Beanstalk-- Производство: Япония, Nippon Herald Films
Режиссер: Гисабуро Сугии / Gisaburo Sugii
Жанр: музыкальная фантазия
Год выпуска: 1974 г.
Продолжительность: 01:28:25
Мировая премьера: 20 июля 1974
Перевод: Профессиональный (полное дублирование) ["Нева-1"]
Перевод 2: Профессиональный (полное дублирование) ["Союзмультфильм"]
Оригинальный аудиопоток: Японский
Роли озвучивали: Вадим Гущин, Галина Чигинская, Елена Павловская, Наталья Боровкова, Сергей Паршин-Описание: Тучи нависли над фермой Джека, не светит больше солнце, не растёт больше трава, последняя корова не даёт больше молока. Отправившись в город, чтобы продать корову, Джек встречает странного старика, предлагающего за корову волшебное зёрнышко. Долго не раздумывая, Джек радостно соглашается на сделку. С этого и начинаются Приключения Джека в Стране чудес.
По мотивам английской народной сказки.-Сэмпл IMDB КиноПоиск
Качество видео: DVDRip
Контейнер: AVI
Видео кодек: DivX
Аудио кодек: AC3
Видео: Video: 640x480 (1.33:1), 29.970 fps, DivX Codec 4.x ~1629 kbps avg, 0.18 bit/pixel
Аудио: Audio #1: 48 kHz, AC3 Dolby Digital, 2 ch, ~192.00 kbps avg
Аудио #2: Audio #2: 48 kHz, AC3 Dolby Digital, 2 ch, ~192.00 kbps avg
Аудио #3: Audio #3: 48 kHz, AC3 Dolby Digital, 2 ch, ~192.00 kbps avg
Cубтитры: отсутствуют
Уважаемый коллега уже раздавал этот мультик в DVD два года назад. Предлагаю свою версию.
Не хватает нескольких кадров, обрезанных нашими моралистами, ещё в 70х. В частности, в самом начале, когда мама будит Джека, лицо у неё перекошено и слюна брызжет. Рекомендую вторую аудио дорожку - "Союзмультфильм"
Музыкальная фантазия
Когда я была маленькой, взяла у подруги на кассете чудесный мультик про «стебель до небес и замок на облаках», со временем я про него благополучно забыла, но иногда в памяти всплывали отрывки и некоторые герои из мультфильма. На днях я решила во что бы то ни стало вспомнить его название и пересмотреть.
И вот я готова поделиться своими впечатлениями. «Джек в стране чудес» — замечательный мультик для детей. Деревенский мальчишка, принцесса, злая ведьма, великан, волшебство — все составляющие сказки учтены. Сюжет должен приковать детский глаз от самого начала и до конца, а анимация в лучших традициях мировой мультипликации. Отдельно стоит отметить музыку: благодаря ей мультик превратился в своеобразный анимационный мюзикл, она создает особую атмосферу. Если вы не знаете, чем занять своих детей или младших братьев или сестер, можно включить им этот мультфильм. 1,5 часа отдыха для них и вас обеспечены.
В общем, вполне оправданно и заслуженно
8 из 10
Приятного просмотра.
Nastia-s
Мультик очень смешной и музыкальный. somik
Формат : AVI
Формат/Информация : Audio Video Interleave
Профиль формата : OpenDML
Настройки формата : rec
Размер файла : 1,37 Гбайт
Продолжительность : 1 ч. 28 м.
Общий поток : 2213 Кбит/сек
Программа кодирования : AVI-Mux GUI 1.17.8, Aug 30 2008 12:36:58
Видео
Идентификатор : 0
Формат : MPEG-4 Visual
Параметр BVOP формата : 1
Параметр QPel формата : Нет
Параметр GMC формата : Без точки перехода
Параметр матрицы формата : Default (H.263)
Режим смешивания : Сжатый битовый поток
Идентификатор кодека : DX50
Идентификатор кодека/Подсказка : DivX 5
Продолжительность : 1 ч. 28 м.
Битрейт : 1627 Кбит/сек
Ширина : 640 пикселей
Высота : 480 пикселей
Соотношение сторон : 4:3
Частота кадров : 29,970 кадров/сек
Цветовое пространство : YUV
Субдискретизация насыщенности : 4:2:0
Битовая глубина : 8 бит
Тип развёртки : Прогрессивная
Метод сжатия : С потерями
Бит/(Пиксели*Кадры) : 0.177
Размер потока : 1,01 Гбайт (74%)
Библиотека кодирования : DivX 6.8.5 (UTC 2009-08-20)
Аудио #1
Идентификатор : 1
Формат : AC-3
Формат/Информация : Audio Coding 3
Расширение режима : CM (complete main)
Параметр Endianness формата : Big
Идентификатор кодека : 2000
Продолжительность : 1 ч. 28 м.
Вид битрейта : Постоянный
Битрейт : 192 Кбит/сек
Каналы : 2 канала
Расположение каналов : Front: L R
Частота : 48,0 КГц
Частота кадров : 31,250 кадров/сек (1536 spf)
Метод сжатия : С потерями
Размер потока : 121 Мбайт (9%)
Выравнивание : Соединение по промежуткам
Продолжительность промежутка : 64 мс. (1,92 видеокадра)
Время предзагрузки промежутка : 192 мс.
Аудио #2
Идентификатор : 2
Формат : AC-3
Формат/Информация : Audio Coding 3
Расширение режима : CM (complete main)
Параметр Endianness формата : Big
Идентификатор кодека : 2000
Продолжительность : 1 ч. 28 м.
Вид битрейта : Постоянный
Битрейт : 192 Кбит/сек
Каналы : 2 канала
Расположение каналов : Front: L R
Частота : 48,0 КГц
Частота кадров : 31,250 кадров/сек (1536 spf)
Метод сжатия : С потерями
Размер потока : 121 Мбайт (9%)
Выравнивание : Соединение по промежуткам
Продолжительность промежутка : 64 мс. (1,92 видеокадра)
Время предзагрузки промежутка : 192 мс.
Аудио #3
Идентификатор : 3
Формат : AC-3
Формат/Информация : Audio Coding 3
Расширение режима : CM (complete main)
Параметр Endianness формата : Big
Идентификатор кодека : 2000
Продолжительность : 1 ч. 28 м.
Вид битрейта : Постоянный
Битрейт : 192 Кбит/сек
Каналы : 2 канала
Расположение каналов : Front: L R
Частота : 48,0 КГц
Частота кадров : 31,250 кадров/сек (1536 spf)
Метод сжатия : С потерями
Размер потока : 121 Мбайт (9%)
Выравнивание : Соединение по промежуткам
Продолжительность промежутка : 64 мс. (1,92 видеокадра)
Время предзагрузки промежутка : 192 мс.
Download / Скачать

Хотите скачать бесплатно? Зарегистрируйтесь на сайте (ссылка на регистрацию). Pirat.ca - самый быстрый торрент трекер в рунете!

Как скачивать  ·   Что такое торрент  ·   Рейтинг и ограничения

somik ®

Легенда

26961

Пост 16-Мар-2016 14:39 (спустя 23 минуты)

[Q] 

Для любителей перевода студии "Союзмультфильм" aa

_________________
Всё когда-нибудь уже было... В интернете!
[Профиль]  [ЛС] 

Пост 16-Мар-2016 20:01 (спустя 5 часов)

Топик был перенесен из форума Мультфильмы (Трюм) в форум Зарубежные полнометражные мультфильмы
erchine
 

Purshun

Корсар

115

Пост 16-Мар-2016 20:32 (спустя 5 часов)

[Q] 

Хороший мультик!!!
Лови бочку
А есть еще и в другом качестве - Джек в Стране Чудес / Jack and the Beanstalk (Гисабуро Сугии / Gisaburo Sugii) [1974 г., Мультфильм, DVD5, 576p] MVO + MVO + VO Sub (Eng) + Original (Eng)

_________________
[Профиль]  [ЛС] 

somik ®

Легенда

26961

Пост 16-Мар-2016 23:21 (спустя 2 часа 49 минут)

[Q] 

Я написал об этом в дополнительной информации и предложил свой вариант. Благодарю за внимание и бочку.

_________________
Всё когда-нибудь уже было... В интернете!
[Профиль]  [ЛС] 
Показать сообщения:    
Ответить на тему

Текущее время: Сегодня 22:04

Часовой пояс: GMT + 4



Вы не можете начинать темы
Вы не можете отвечать на сообщения
Вы не можете редактировать свои сообщения
Вы не можете удалять свои сообщения
Вы не можете голосовать в опросах
Вы не можете прикреплять файлы к сообщениям
Вы не можете скачивать файлы

▼ Вниз