ML
     
  Уважаемый Гость!
Вы можете поддержать проект и зарегистрироваться у наших партнеров - онлайн-стратегия MyLands. При регистрации в игре Вы получите код, который сможете активировать после регистрации на pirat.ca и получить 1000 дублонов.

Ваш код:
b70663c760e7cd2521b8e123786cdd788200e3bd
 
     

Эпоха дракона: Рождение Искательницы / Dragon Age: Dawn of the Seeker (Фумихико Сори / Fumihiko Sori) [2012 г., мультфильм, фэнтези, боевик, приключения, HDTVRip] MVO

Ответить на тему
 
Автор
Сообщение

Пост 16-Мар-2016 15:56

[Q] 

somik

Легенда

-Эпоха дракона: Рождение Искательницы / Dragon Age: Dawn of the Seeker-- Производство: Япония, США, Bioware, Electronic Arts (EA) Redwood Shores, FUNimation Productions Ltd. , Oxybot, T.O Entertainment,T.O. Entertainment, Toneplus Animation Studios
Режиссер: Фумихико Сори / Fumihiko Sori
Жанр: мультфильм, фэнтези, боевик, приключения
Год выпуска: 2012 г.
Продолжительность: 01:29:10
Мировая премьера: 11 февраля 2012
Перевод: Любительский (многоголосый, закадровый) [Renegade team]
Роли озвучивали: Renegade team-Описание: Восходит солнце и приносит собой новую волнующую эпоху в Рождении Искательницы — первом полноформатном анимированном дополнении к миру Dragon Age. В землях Орлея юная и дерзкая Искательница Кассандра сражается в попытке остановить кровавый заговор. Неизвестные стремятся разорвать на части самый могущественный религиозный орден, и по мере развития зловещего плана Кассандра подпадает под обвинение в измене и убийстве. Преследуемая друзьями и врагами, импульсивная красотка должна очистить свое имя, сталкиваясь с продажными храмовниками и мятежными магами крови. Неудача для нее означает одно — клинок палача. Но если ей удастся совладать со своим гневом и раскрыть тайные силы, угрожающие правлению Верховной жрицы (Divine), имя Кассандры займет место в легендах.-IMDB КиноПоиск
Качество видео: HDTVRip
Контейнер: AVI
Видео кодек: XviD
Аудио кодек: AC3
Видео: Video: 720x400 (1.80:1), 23.976 fps, XviD MPEG-4 ~1737 kbps avg, 0.25 bit/pixel
Аудио: Audio: 48 kHz, AC3 Dolby Digital, 3/2 (L,C,R,l,r) + LFE ch, ~448 kbps
Cубтитры: отсутствуют
В землях Орлея юная и дерзкая Искательница Кассандра сражается в попытке остановить кровавый заговор. Неизвестные стремятся разорвать на части самый могущественный религиозный орден, и по мере развития зловещего плана Кассандра подпадает под обвинение в измене и убийстве.
Преследуемая друзьями и врагами, импульсивная красотка должна очистить свое имя, сталкиваясь с продажными храмовниками и мятежными магами крови. Неудача для нее означает одно — клинок палача. Но если ей удастся совладать со своим гневом и раскрыть тайные силы, угрожающие правлению Верховной жрицы, имя Кассандры займет место в легендах.
Честно говоря, когда узнала о существовании этого мультфильма, была очень удивлена, ведь за несколько дней до того прошла 2 часть игры. Не могу сказать, что мои надежды оправдались, но и не могу сказать что мне не понравилось.
Никогда особо не увлекалась аниме и японскими мультфильмами, но пересмотрела их не мало. Так что сразу можно заметить (да даже по звукам оригинала), что традиционные аниме моменты присутствуют: сам внешний вид героев, абсолютно типичный персонаж из аниме Байрон, юбка и ноги Кассандры. Вот только мне кажется что они переборщили (особенно с видом крови), потому что с каждым новым активным движением персонажей очень видна эта тонкая грань между реалистичностью и мультфильмом. Как по мне так они должны были или полностью прорисовать детали или сделать графику более приближенной к реальности.
Стоит заметить, что все полтора часа зритель должен находится в напряжении, а из-за сглаженных моментов (которые, по идее, должны быть критическими), а так же из-за слишком быстрого развития сюжета, он просто не может уследить за всем и многие важные детали ускользают. Я считаю это огромным минусом и недочетом сценаристов.
Но вот сам сюжет — это отдельный разговор. По-моему, вот тут создатели постарались на славу. Мультфильм начинается с интригующего рассказа и сразу же втягивает зрителя, заставляя ловить каждое слово персонажей. Монстры в мультфильме нарисованы такими как и в игре. Так же стоить заметить, что предыстория соответствует оригинальным событиям в игре, что не может не радовать таких фанатов, как я.
В целом мультфильм мне понравился и я считаю, что все, кто хоть раз играл в Dragon Age должны посмотреть его.
8 из 10.
Liana Belini
Формат : AVI
Формат/Информация : Audio Video Interleave
Размер файла : 1,37 Гбайт
Продолжительность : 1 ч. 29 м.
Общий поток : 2195 Кбит/сек
Программа кодирования : VirtualDubMod 1.5.10.2 (build 2540/release)
Библиотека кодирования : VirtualDubMod build 2540/release
Видео
Идентификатор : 0
Формат : MPEG-4 Visual
Профиль формата : Advanced [email protected]
Параметр BVOP формата : 2
Параметр QPel формата : Нет
Параметр GMC формата : Без точки перехода
Параметр матрицы формата : Default (H.263)
Режим смешивания : Сжатый битовый поток
Идентификатор кодека : XVID
Идентификатор кодека/Подсказка : XviD
Продолжительность : 1 ч. 29 м.
Битрейт : 1738 Кбит/сек
Ширина : 720 пикселей
Высота : 400 пикселей
Соотношение сторон : 16:9
Частота кадров : 23,976 (23976/1000) кадра/сек
Цветовое пространство : YUV
Субдискретизация насыщенности : 4:2:0
Битовая глубина : 8 бит
Тип развёртки : Прогрессивная
Метод сжатия : С потерями
Бит/(Пиксели*Кадры) : 0.252
Размер потока : 1,08 Гбайт (79%)
Библиотека кодирования : XviD 1.2.1 (UTC 2008-12-04)
Аудио
Идентификатор : 1
Формат : AC-3
Формат/Информация : Audio Coding 3
Расширение режима : CM (complete main)
Параметр Endianness формата : Big
Идентификатор кодека : 2000
Продолжительность : 1 ч. 29 м.
Вид битрейта : Постоянный
Битрейт : 448 Кбит/сек
Каналы : 6 каналов
Расположение каналов : Front: L C R, Side: L R, LFE
Частота : 48,0 КГц
Частота кадров : 31,250 кадров/сек (1536 spf)
Метод сжатия : С потерями
Размер потока : 286 Мбайт (20%)
Выравнивание : Разделение по промежуткам
Продолжительность промежутка : 42 мс. (1,00 видеокадр)
Время предзагрузки промежутка : 500 мс.
Download / Скачать

Хотите скачать бесплатно? Зарегистрируйтесь на сайте (ссылка на регистрацию). Pirat.ca - самый быстрый торрент трекер в рунете!

Как скачивать  ·   Что такое торрент  ·   Рейтинг и ограничения

somik ®

Легенда

26676

Пост 16-Мар-2016 16:11 (спустя 14 минут)

[Q] 

Качественно и сюжет, вроде, есть. Перевод нормальный.

_________________
Всё когда-нибудь уже было... В интернете!
На форуме  [Профиль]  [ЛС] 

Пост 16-Мар-2016 20:06 (спустя 3 часа)

Топик был перенесен из форума Мультфильмы (Трюм) в форум Зарубежные полнометражные мультфильмы
erchine
 

Slavkovich_

Пост 17-Мар-2016 20:18 (спустя 1 день 4 часа)

[Q] 

Спасибо, обязательно, просмотр
[Профиль]  [ЛС] 

Purshun

Корсар

115

Пост 21-Мар-2016 11:03 (спустя 3 дня)

[Q] 

Спасибо somik!
Лови бочку

_________________
[Профиль]  [ЛС] 
Показать сообщения:    
Ответить на тему

Текущее время: Сегодня 00:19

Часовой пояс: GMT + 4



Вы не можете начинать темы
Вы не можете отвечать на сообщения
Вы не можете редактировать свои сообщения
Вы не можете удалять свои сообщения
Вы не можете голосовать в опросах
Вы не можете прикреплять файлы к сообщениям
Вы не можете скачивать файлы

▼ Вниз