ML
     
  Уважаемый Гость!
Вы можете поддержать проект и зарегистрироваться у наших партнеров - онлайн-стратегия MyLands. При регистрации в игре Вы получите код, который сможете активировать после регистрации на pirat.ca и получить 1000 дублонов.

Ваш код:
ea554e7ed3eacceeae87a8b30a9de3f086c18a84
 
     

Сезон охоты 4: Страшно глупо / Open Season: Scared Silly (Дэвид Фейсс / David Feiss) [2015 г., мультфильм, фэнтези, комедия, приключения, семейный, HDRip] Dub + Original (Eng)

Ответить на тему
 
Автор
Сообщение

Пост 22-Мар-2016 21:31

[Q] 

Skat.56

Гроза морей

-Сезон охоты 4: Страшно глупо / Open Season: Scared Silly-- Производство: США
Год выпуска: 2015 г.
Жанр: мультфильм, фэнтези, комедия, приключения, семейный
Продолжительность: 01:30:58
Мировая премьера: 18 декабря 2015
Перевод: Профессиональный (полное дублирование)
Оригинальный аудиопоток: английский
Режиссер: Дэвид Фейсс / David Feiss-В ролях: Кэтлин Барр, Гари Чок, Тревор Дивэлл, Донни Джеймс Лукас, Мелисса Штурм, Мэттью В. Тейлор-Описание: Элиот, Буг и вся их лесная братва попадают в совершенно новое и очень-очень смешное приключение.-
Качество видео: HDRip
Контейнер: AVI
Видео кодек: DivX
Аудио кодек: AC3
Видео: 704x400 23.98fps 2010kbps
Аудио: Rus: 48kHz 2ch 192kbps
Аудио #2: Eng: 48kHz 2ch 256kbps
Cубтитры: отсутствуют
Без рекламы.
Общее
Полное имя : Open SeasonScared Silly[Pirat.ca].avi
Формат : AVI
Формат/Информация : Audio Video Interleave
Размер файла : 1,46 Гбайт
Продолжительность : 1 ч. 24 м.
Общий поток : 2473 Кбит/сек
Название фильма : Sezon.ohoty.4.Strashno.glupo.2015.D.BDRip.1.46Gb_by_Twi7ter
Режиссёр : Twi7ter
Жанр : Adventure/Family
Программа кодирования : VirtualDubMod 1.5.10.3 (build 2550/release)
Формат оригинала/Имя : Cartoon
Видео
Идентификатор : 0
Формат : MPEG-4 Visual
Профиль формата : Advanced [email protected]
Параметр BVOP формата : 2
Параметр QPel формата : Нет
Параметр GMC формата : Без точки перехода
Параметр матрицы формата : Выборочная
Идентификатор кодека : XVID
Идентификатор кодека/Подсказка : XviD
Продолжительность : 1 ч. 24 м.
Битрейт : 2011 Кбит/сек
Ширина : 704 пикселя
Высота : 400 пикселей
Соотношение сторон : 16:9
Частота кадров : 23,976 (24000/1001) кадра/сек
Цветовое пространство : YUV
Субдискретизация насыщенности : 4:2:0
Битовая глубина : 8 бит
Тип развёртки : Прогрессивная
Метод сжатия : С потерями
Бит/(Пиксели*Кадры) : 0.298
Размер потока : 1,19 Гбайт (81%)
Библиотека кодирования : XviD 73
Аудио #1
Идентификатор : 1
Формат : AC-3
Формат/Информация : Audio Coding 3
Расширение режима : CM (complete main)
Параметр Endianness формата : Big
Идентификатор кодека : 2000
Продолжительность : 1 ч. 24 м.
Вид битрейта : Постоянный
Битрейт : 192 Кбит/сек
Каналы : 2 канала
Расположение каналов : Front: L R
Частота : 48,0 КГц
Частота кадров : 31,250 кадров/сек (1536 spf)
Метод сжатия : С потерями
Размер потока : 116 Мбайт (8%)
Выравнивание : Разделение по промежуткам
Продолжительность промежутка : 42 мс. (1,00 видеокадр)
Время предзагрузки промежутка : 500 мс.
Аудио #2
Идентификатор : 2
Формат : AC-3
Формат/Информация : Audio Coding 3
Расширение режима : CM (complete main)
Параметр Endianness формата : Big
Идентификатор кодека : 2000
Продолжительность : 1 ч. 24 м.
Вид битрейта : Постоянный
Битрейт : 256 Кбит/сек
Каналы : 2 канала
Расположение каналов : Front: L R
Частота : 48,0 КГц
Частота кадров : 31,250 кадров/сек (1536 spf)
Метод сжатия : С потерями
Размер потока : 155 Мбайт (10%)
Выравнивание : Разделение по промежуткам
Продолжительность промежутка : 42 мс. (1,00 видеокадр)
Время предзагрузки промежутка : 500 мс.
Download / Скачать

Хотите скачать бесплатно? Зарегистрируйтесь на сайте (ссылка на регистрацию). Pirat.ca - самый быстрый торрент трекер в рунете!

Как скачивать  ·   Что такое торрент  ·   Рейтинг и ограничения

Пост 22-Мар-2016 21:53 (спустя 22 минуты)

Топик был перенесен из форума Зарубежное Кино (Трюм) в форум Мультфильмы (Трюм)
Андря
 

Пост 22-Мар-2016 21:53 (спустя 22 минуты)

Топик был перенесен из форума Мультфильмы (Трюм) в форум Зарубежные полнометражные мультфильмы
Андря
 

Jey1980

Морской Волк

Пост 23-Мар-2016 00:31 (спустя 2 часа 59 минут)

[Q] 

А что это за мульт? С одной стороны - брэндовый, а с другой - вообще трейлеров не было... Странно. Как впечатления?
[Профиль]  [ЛС] 

somik

Легенда

26778

Пост 23-Мар-2016 01:03 (спустя 32 минуты)

[Q] 

Спасибо, ждали... На других сайтах сразу режут "правообладатели". Смотрим всей семьёй. aa

_________________
Всё когда-нибудь уже было... В интернете!
[Профиль]  [ЛС] 

Skat.56 ®

Гроза морей

448

Пост 23-Мар-2016 03:32 (спустя 2 часа 28 минут)

[Q] 

742043Спасибо, ждали... На других сайтах сразу режут "правообладатели". Смотрим всей семьёй. aa
Русалок верни)))
Не за что!
[Профиль]  [ЛС] 

shayhi79

Морской Волк

Пост 24-Мар-2016 14:05 (спустя 1 день 10 часов)

[Q] 

Спасибо! Раздающему респект!
[Профиль]  [ЛС] 
Показать сообщения:    
Ответить на тему

Текущее время: Сегодня 12:11

Часовой пояс: GMT + 4



Вы не можете начинать темы
Вы не можете отвечать на сообщения
Вы не можете редактировать свои сообщения
Вы не можете удалять свои сообщения
Вы не можете голосовать в опросах
Вы не можете прикреплять файлы к сообщениям
Вы не можете скачивать файлы

▼ Вниз