ML
     
  Уважаемый Гость!
Вы можете поддержать проект и зарегистрироваться у наших партнеров - онлайн-стратегия MyLands. При регистрации в игре Вы получите код, который сможете активировать после регистрации на pirat.ca и получить 1000 дублонов.

Ваш код:
9cfe162481db953a6549f32179d7b3900b8b8643
 
     

Кунг-фу Панда 3 / Kung Fu Panda 3 (Alessandro Carloni, Jennifer Yuh / Алессандро Карлони, Дженнифер Ю) [2016 г., мультфильм, боевик, комедия, приключения, семейный, WEB-DLRip] Dub [iTunes]

Ответить на тему
 
Автор
Сообщение

Пост 24-Мар-2016 08:22

[Q] 

aleksey99

--Кунг-фу Панда 3 / Kung Fu Panda 3--«Притяженья больше нет»-- Производство: Китай, США / China Film Co., DreamWorks Animation, Oriental DreamWorks
Год выпуска: 2016 г.
Жанр: мультфильм, боевик, комедия, приключения, семейный
Продолжительность: 01:35:12--Мировая премьера: 16 января 2016
Российская премьера: 28 января 2016, «Двадцатый Век Фокс СНГ»--Перевод: Профессиональный (полное дублирование) [iTunes]--Режиссер: Alessandro Carloni, Jennifer Yuh / Алессандро Карлони, Дженнифер Ю--В ролях: Джек Блэк, Брайан Крэнстон, Дастин Хоффман, Анджелина Джоли, Дж.К. Симмонс, Джеки Чан, Сет Роген, Люси Лью, Дэвид Кросс, Кейт Хадсон--Описание: Воссоединившись со своим давно потерянным отцом, По отправляется в тайный рай для панд, где его ожидает встреча с множеством веселых сородичей. Однако вскоре злодей Кай начинает зачистку — он уничтожает кунг-фу мастеров по всему Китаю. По предстоит сделать невозможное — обучить боевому искусству деревню, полную его веселых, неуклюжих собратьев, и тем самым превратить их в отряд кунг-фу панд.-- --Качество видео: WEB-DLRip
Контейнер: AVI
Видео кодек: XviD
Аудио кодек: AC3
Видео: 720x304 (2.37:1), 23.976 fps, XviD build 73 ~1790 kbps avg, 0.34 bit/pixel
Аудио: 48 kHz, AC3 Dolby Digital, 3/2 (L,C,R,l,r) + LFE ch, ~384 kbps
Cубтитры: отсутствуют.
Общее
Полное имя : H:\Torrent2\Kung.Fu.Panda.3.2016.D.WEB-DLRip.avi
Формат : AVI
Формат/Информация : Audio Video Interleave
Размер файла : 1,45 Гбайт
Продолжительность : 1 ч. 35 м.
Общий поток : 2183 Кбит/сек
Программа кодирования : VirtualDubMod 1.5.10.3 | www.virtualdub-fr.org || (build 2550/release)
Библиотека кодирования : VirtualDubMod build 2550/release
Видео
Идентификатор : 0
Формат : MPEG-4 Visual
Профиль формата : Advanced [email protected]
Параметр BVOP формата : 1
Параметр QPel формата : Нет
Параметр GMC формата : Без точки перехода
Параметр матрицы формата : Выборочная
Идентификатор кодека : XVID
Идентификатор кодека/Подсказка : XviD
Продолжительность : 1 ч. 35 м.
Битрейт : 1791 Кбит/сек
Ширина : 720 пикселей
Высота : 304 пикселя
Соотношение сторон : 2,35:1
Частота кадров : 23,976 кадра/сек
Цветовое пространство : YUV
Субдискретизация насыщенности : 4:2:0
Битовая глубина : 8 бит
Тип развёртки : Прогрессивная
Метод сжатия : С потерями
Бит/(Пиксели*Кадры) : 0.341
Размер потока : 1,19 Гбайт (82%)
Библиотека кодирования : XviD 73
Аудио
Идентификатор : 1
Формат : AC-3
Формат/Информация : Audio Coding 3
Расширение режима : CM (complete main)
Параметр Endianness формата : Big
Идентификатор кодека : 2000
Продолжительность : 1 ч. 34 м.
Вид битрейта : Постоянный
Битрейт : 384 Кбит/сек
Каналы : 6 каналов
Расположение каналов : Front: L C R, Side: L R, LFE
Частота : 48,0 КГц
Битовая глубина : 16 бит
Метод сжатия : С потерями
Размер потока : 261 Мбайт (18%)
Выравнивание : Разделение по промежуткам
Продолжительность промежутка : 42 мс. (1,00 видеокадр)
Время предзагрузки промежутка : 500 мс.
Трейлер
Download / Скачать

Хотите скачать бесплатно? Зарегистрируйтесь на сайте (ссылка на регистрацию). Pirat.ca - самый быстрый торрент трекер в рунете!

Как скачивать  ·   Что такое торрент  ·   Рейтинг и ограничения

demboss

Морской Волк

19

Пост 24-Мар-2016 09:23 (спустя 1 час)

[Q] 

спасибо! заценим семьей вечерком, надеюсь, мульт не хуже предыдущих 2 частей)
Лови бочку
[Профиль]  [ЛС] 

shayhi79

Морской Волк

Пост 24-Мар-2016 13:51 (спустя 4 часа)

[Q] 

Раздающему респект! Пиратка рулит!
[Профиль]  [ЛС] 

romik_0190

Лоцман

23

Пост 24-Мар-2016 17:29 (спустя 3 часа)

[Q] 

картинка снизу обрезана?
[Профиль]  [ЛС] 

левка

Корсар

Пост 24-Мар-2016 19:35 (спустя 2 часа 5 минут)

[Q] 

aleksey99, Няя
[Профиль]  [ЛС] 

StasjanXL

Юнга

Пост 24-Мар-2016 20:24 (спустя 49 минут)

[Q] 

Обрезана картинка???
[Профиль]  [ЛС] 

aleksey99 ®

282417

Пост 24-Мар-2016 20:55 (спустя 31 минута)

[Q] 

742321картинка снизу обрезана?
742358Обрезана картинка???
Нет

_________________

[Профиль]  [ЛС] 

Alex-dix

Флибустьер

Пост 24-Мар-2016 22:39 (спустя 1 час 43 минуты)

[Q] 

Спасибо!!! Супер! Спасибо!!!
[Профиль]  [ЛС] 

buzuvir

Корсар

Пост 24-Мар-2016 23:48 (спустя 1 час 8 минут)

[Q] 

742258спасибо! заценим семьей вечерком, надеюсь, мульт не хуже предыдущих 2 частей)
Лови бочку

_________________
[Профиль]  [ЛС] 

steel21

Лоцман

Пост 25-Мар-2016 09:41 (спустя 9 часов)

[Q] 

Мне и дочери мультфильм понравился Спасибо!!! Лови бочку
[Профиль]  [ЛС] 

Pippo48

Корсар

Пост 25-Мар-2016 20:53 (спустя 11 часов)

[Q] 

3-я часть понравилась наравне с первой, рекомендован для просмотра с детьми Спасибо!!!
[Профиль]  [ЛС] 

ss80

Флибустьер

36

Пост 25-Мар-2016 22:57 (спустя 2 часа 3 минуты)

[Q] 

Спасибо!!! !COOL!
[Профиль]  [ЛС] 

andreiex

Шкипер

Пост 29-Мар-2016 16:58 (спустя 3 дня)

[Q] 

Сбился со счета, какой это на самом деле мульт про панду, да еще учитывая неплохой сериал. Но, тем не менее, полагаю, это как раз тот случай, когда серии можно выпускать еще и еще, пока хватит терпения Всем качать!!!
Посмотрел - хорошо Качают ВСЕ!!!
[Профиль]  [ЛС] 

olmed

Корсар

Пост 04-Апр-2016 12:30 (спустя 5 дней)

[Q] 

Спасибо!!! Супер!
[Профиль]  [ЛС] 

Пост 26-Апр-2016 12:15 (спустя 21 день)

Топик был перенесен из форума Новинки (HD|DVD|BD| TV|SAT|PDTV| - Rips) в форум Зарубежные полнометражные мультфильмы
aleksey99
 
Показать сообщения:    
Ответить на тему

Текущее время: Сегодня 06:02

Часовой пояс: GMT + 4



Вы не можете начинать темы
Вы не можете отвечать на сообщения
Вы не можете редактировать свои сообщения
Вы не можете удалять свои сообщения
Вы не можете голосовать в опросах
Вы не можете прикреплять файлы к сообщениям
Вы не можете скачивать файлы

▼ Вниз