ML
     
  Уважаемый Гость!
Вы можете поддержать проект и зарегистрироваться у наших партнеров - онлайн-стратегия MyLands. При регистрации в игре Вы получите код, который сможете активировать после регистрации на pirat.ca и получить 1000 дублонов.

Ваш код:
ee1288b6f7c09d9d2cb2a0f972aba30460ce9333
 
     

Король обезьян / Xi You Ji Zhi Da Sheng gui lai (Тиан Сяо Пенг / Tian Xiao Peng) [2015 г., мультфильм, WEB-DLRip] MVO [AniDub] + Sub (Chi, Eng)

Ответить на тему
 
Автор
Сообщение

Пост 27-Мар-2016 13:34

[Q] 

aleksey99

--Король обезьян / Xi You Ji Zhi Da Sheng gui lai-- Производство: Китай, Beijing Weiyingshidai Culture & Media, Hengdian Chinese Film Production Co., October Animation Studio
Год выпуска: 2015 г.
Жанр: мультфильм
Продолжительность: 01:25:13--Мировая премьера: 10 июля 2015
Российская премьера: 19 марта 2016, «Top Film Distribution»--Перевод: Любительский (многоголосый, закадровый) [AniDub]--Режиссер: Тиан Сяо Пенг / Tian Xiao Peng--В ролях: Никки Брайар, Федор Чин, Ника Футтерман, Джеймс Хонг, Дэвид С. Юнг--Описание: Всемогущий Король Обезьян однажды прогневил богов и был заключен ими в ледяную бездну среди Мраморных гор. Спустя 500 лет маленький мальчик случайно снимает заклятие и освобождает героя.
Теперь Короля ждет новое испытание: ему предстоит сразиться с Кровожадным Драконом. Сможет ли великий герой, владевший магией и кунг-фу, спасти людей и победить Могучего Дракона?-- --Качество видео: WEB-DLRip
Контейнер: AVI
Видео кодек: XviD
Аудио кодек: AC3
Видео: 720x304 (2.37:1), 25 fps, XviD build 73 ~2242 kbps avg, 0.41 bit/pixel
Аудио: 48 kHz, AC3 Dolby Digital, 2/0 (L,R) ch, ~192 kbps
Cубтитры: китайские, английские (вшитые неотключаемые)
Общее
Полное имя : H:\Torrent2\Король обезьян.2015.avi
Формат : AVI
Формат/Информация : Audio Video Interleave
Размер файла : 1,46 Гбайт
Продолжительность : 1 ч. 25 м.
Общий поток : 2445 Кбит/сек
Программа кодирования : VirtualDubModRus 1.5.10.2 (build 2542/release)
Библиотека кодирования : VirtualDubMod build 2542/release
Видео
Идентификатор : 0
Формат : MPEG-4 Visual
Профиль формата : Advanced [email protected]
Параметр BVOP формата : 1
Параметр QPel формата : Нет
Параметр GMC формата : Без точки перехода
Параметр матрицы формата : Выборочная
Идентификатор кодека : XVID
Идентификатор кодека/Подсказка : XviD
Продолжительность : 1 ч. 25 м.
Битрейт : 2243 Кбит/сек
Ширина : 720 пикселей
Высота : 304 пикселя
Соотношение сторон : 2,35:1
Частота кадров : 25,000 кадров/сек
Цветовое пространство : YUV
Субдискретизация насыщенности : 4:2:0
Битовая глубина : 8 бит
Тип развёртки : Прогрессивная
Метод сжатия : С потерями
Бит/(Пиксели*Кадры) : 0.410
Размер потока : 1,34 Гбайт (92%)
Библиотека кодирования : XviD 73
Аудио
Идентификатор : 1
Формат : AC-3
Формат/Информация : Audio Coding 3
Расширение режима : CM (complete main)
Параметр Endianness формата : Big
Идентификатор кодека : 2000
Продолжительность : 1 ч. 25 м.
Вид битрейта : Постоянный
Битрейт : 192 Кбит/сек
Каналы : 2 канала
Расположение каналов : Front: L R
Частота : 48,0 КГц
Битовая глубина : 16 бит
Метод сжатия : С потерями
Задержка видео : 250 мс.
Размер потока : 117 Мбайт (8%)
Выравнивание : Разделение по промежуткам
Продолжительность промежутка : 40 мс. (1,00 видеокадр)
Время предзагрузки промежутка : 500 мс.
Трейлер
Download / Скачать

Хотите скачать бесплатно? Зарегистрируйтесь на сайте (ссылка на регистрацию). Pirat.ca - самый быстрый торрент трекер в рунете!

Как скачивать  ·   Что такое торрент  ·   Рейтинг и ограничения

bolin

Флибустьер

Пост 27-Мар-2016 15:55 (спустя 2 часа 20 минут)

[Q] 

Спасибо качну детям!
[Профиль]  [ЛС] 

Aleks44

Гроза морей

Пост 27-Мар-2016 21:11 (спустя 5 часов)

[Q] 

Интересный мультик , есть смешные моменты, а главное нет джойказино и это радует ничто не мешает просмотру
[Профиль]  [ЛС] 

Gari4

Флибустьер

Пост 27-Мар-2016 21:36 (спустя 25 минут)

[Q] 

буду ждать дубляж..
[Профиль]  [ЛС] 

fishman

Корсар

Пост 28-Мар-2016 00:08 (спустя 2 часа 31 минута)

[Q] 

Спасибо!!! Лови бочку

_________________
|___|___|___|___|___|___|___|__|__
__|__|__|_Биться головой_|___|___|
|___|___|___|__сюда!!___|___|__|__
__|___|___|___|___|___|___|__|__
[Профиль]  [ЛС] 

gamm1beer

Морской Волк

Пост 04-Апр-2016 16:11 (спустя 7 дней)

[Q] 

закос под сунь-укуна

_________________
[Профиль]  [ЛС] 

Barskavkaz

Корсар

Пост 05-Апр-2016 14:15 (спустя 22 часа)

[Q] 

Нормальный мультик, смотрел, не пожалел.

_________________
Д.Тк
На форуме  [Профиль]  [ЛС] 

Пост 04-Май-2016 21:42 (спустя 29 дней)

Топик был перенесен из форума Новинки (HD|DVD|BD| TV|SAT|PDTV| - Rips) в форум Зарубежные полнометражные мультфильмы
aleksey99
 
Показать сообщения:    
Ответить на тему

Текущее время: Сегодня 18:20

Часовой пояс: GMT + 4



Вы не можете начинать темы
Вы не можете отвечать на сообщения
Вы не можете редактировать свои сообщения
Вы не можете удалять свои сообщения
Вы не можете голосовать в опросах
Вы не можете прикреплять файлы к сообщениям
Вы не можете скачивать файлы

▼ Вниз