ML
     
  Уважаемый Гость!
Вы можете поддержать проект и зарегистрироваться у наших партнеров - онлайн-стратегия MyLands. При регистрации в игре Вы получите код, который сможете активировать после регистрации на pirat.ca и получить 1000 дублонов.

Ваш код:
db0e0ad91548759ffeb9bb88bed405e1a4b3c165
 
     

Робот Арк / Ark (Кенни Хванг / Kenny Hwang) [2004 г., мультфильм, фантастика, боевик, драма, DVDRip] MVO

Ответить на тему
 
Автор
Сообщение

Пост 05-Апр-2016 17:19

[Q] 

somik

Легенда

-Робот Арк / Ark-- Производство: США, Южная Корея, Digital Rim, Digital Dream Studios...
Режиссер: Кенни Хванг / Kenny Hwang
Жанр: мультфильм, фантастика, боевик, драма
Год выпуска: 2004 г.
Продолжительность: 01:29:41
Мировая премьера: 2 июня 2005
Перевод: Профессиональный (многоголосый, закадровый)
Роли озвучивали: Чиара Занни, Кирби Морроу, Тревор Деволл, Джеймс Вудс, Кэтлин Барр, Джерард Планкетт, Табита Ст. Джермейн, Фиона Хоган, Джейсон Симпсон, Сэнди Фокс-Описание: Страшная катастрофа грозит планете Алцион. Остатки двух ее цивилизаций укрылись под защитным куполом в единственном городе - столице, расположенной на спине гигантского робота по имени Арк. Он был создан Цивианами с помощью загадочной богини Амео, но воинственные Сториане захватили Арка, вытеснив Цивиан в пустоши и поработив их. Однако без Амео, погибшей при схватке, робот остается недвижим, и все попытки Сториан запустить его механизм тщетны. Два народа обречены на гибель, ведь Арк - их единственный путь к спасению, последняя возможность выбраться с умирающей планеты… Но таинственная девушка Эмерит дарит жителям Алцедона новую надежду.-КиноПоиск
Качество видео: DVDRip
Контейнер: AVI
Видео кодек: XviD
Аудио кодек: AC3
Видео: Video: 720x416 (1.73:1), 25 fps, XviD build 47 ~1792 kbps avg, 0.24 bit/pixel
Аудио: Audio: 48 kHz, AC3 Dolby Digital, 3/2 (L,C,R,l,r) + LFE ch, ~384 kbps
Cубтитры: отсутствуют
Жанр: Мультфильм, Фантастика, Боевик, Драма.
Страна: США, Корея.
Слоган: "Приготовьтесь быть спасенным".
Режиссер: Кенни Хванг.
Сценарий: Джордан Итковиц, Чжэ Ён Квак ... »
Продюсеры: Kwang Chul Jung, Джин Хань ... »
Композитор: Дэннис С. Браун, David Lowmiller ... »
Формат : AVI
Формат/Информация : Audio Video Interleave
Размер файла : 1,37 Гбайт
Продолжительность : 1 ч. 29 м.
Общий поток : 2183 Кбит/сек
Программа кодирования : VirtualDubMod 1.5.4.1 (build 2178/release)
Библиотека кодирования : VirtualDubMod build 2178/release
Видео
Идентификатор : 0
Формат : MPEG-4 Visual
Профиль формата : Advanced [email protected]
Параметр BVOP формата : 1
Параметр QPel формата : Нет
Параметр GMC формата : Без точки перехода
Параметр матрицы формата : Выборочная
Идентификатор кодека : XVID
Идентификатор кодека/Подсказка : XviD
Продолжительность : 1 ч. 29 м.
Битрейт : 1792 Кбит/сек
Ширина : 720 пикселей
Высота : 416 пикселей
Соотношение сторон : 1,731
Частота кадров : 25,000 кадров/сек
Цветовое пространство : YUV
Субдискретизация насыщенности : 4:2:0
Битовая глубина : 8 бит
Тип развёртки : Прогрессивная
Метод сжатия : С потерями
Бит/(Пиксели*Кадры) : 0.239
Размер потока : 1,12 Гбайт (82%)
Библиотека кодирования : XviD 1.2.0.dev47 (UTC 2006-11-01)
Аудио
Идентификатор : 1
Формат : AC-3
Формат/Информация : Audio Coding 3
Расширение режима : CM (complete main)
Параметр Endianness формата : Big
Идентификатор кодека : 2000
Продолжительность : 1 ч. 29 м.
Вид битрейта : Постоянный
Битрейт : 384 Кбит/сек
Каналы : 6 каналов
Расположение каналов : Front: L C R, Side: L R, LFE
Частота : 48,0 КГц
Частота кадров : 31,250 кадров/сек (1536 spf)
Метод сжатия : С потерями
Размер потока : 246 Мбайт (18%)
Выравнивание : Разделение по промежуткам
Продолжительность промежутка : 96 мс. (2,40 видеокадра)
Время предзагрузки промежутка : 96 мс.
Язык : Russian
Download / Скачать

Хотите скачать бесплатно? Зарегистрируйтесь на сайте (ссылка на регистрацию). Pirat.ca - самый быстрый торрент трекер в рунете!

Как скачивать  ·   Что такое торрент  ·   Рейтинг и ограничения

somik ®

Легенда

27244

Пост 05-Апр-2016 17:22 (спустя 2 минуты)

[Q] 

Неплохой семейный мультик. На любителя

_________________
Всё когда-нибудь уже было... В интернете!
[Профиль]  [ЛС] 

Пост 06-Апр-2016 03:12 (спустя 9 часов)

Топик был перенесен из форума Мультфильмы (Трюм) в форум Зарубежные полнометражные мультфильмы
Андря
 
Показать сообщения:    
Ответить на тему

Текущее время: Сегодня 08:11

Часовой пояс: GMT + 4



Вы не можете начинать темы
Вы не можете отвечать на сообщения
Вы не можете редактировать свои сообщения
Вы не можете удалять свои сообщения
Вы не можете голосовать в опросах
Вы не можете прикреплять файлы к сообщениям
Вы не можете скачивать файлы

▼ Вниз