ML
     
  Уважаемый Гость!
Вы можете поддержать проект и зарегистрироваться у наших партнеров - онлайн-стратегия MyLands. При регистрации в игре Вы получите код, который сможете активировать после регистрации на pirat.ca и получить 1000 дублонов.

Ваш код:
a978488e62322cd72e113ab723b8a7fdc10eb9b9
 
     

Пернатая банда / El Americano: The Movie (Рикардо Арнаиз / Ricardo Arnaiz) [2016 г., мультфильм, боевик, комедия, приключения, семейный, WEB-DLRip] Dub

Ответить на тему
 
Автор
Сообщение

Пост 11-Апр-2016 16:53

[Q] 

somik

Легенда

-Пернатая банда / / El Americano: The Movie-- Производство: Мексика , США, Animex for Erchine, Olmos Production, Phil Roman Entertainment, Спецэффекты: Cutting Edge Productions
Режиссер: Рикардо Арнаиз / Ricardo Arnaiz
Жанр: мультфильм, боевик, комедия, приключения, семейный
Год выпуска: 2016 г.
Продолжительность: 01:27:51
Мировая премьера: 22 января 2016
Российская премьера: 25 февраля 2016, «Top Film Distribution»
Перевод: Профессиональный (полное дублирование) [Лицензия (Top Film Distribution)]
Роли озвучивали: Эдвард Джеймс Олмос , Рико Родригес , Чич Марин , Кейт дель Кастильо , Алекс Синтек , Эрик Эстрада , Пьер Анджело , Дон Чето , Рикардо Санчес-Описание: Красочный анимационный фильм, над созданием которого трудились художники из Мексики и США, объединив свои усилия, повествует о маленьком попугайчике. Герой совершенно отбился от рук своих родителей - он целыми днями наблюдает за приключениями своего кумира Эль Американо. Это летающий супергерой из Голливуда, который заставляет малыша мечтать. Но при этом Куко совершенно не занимается домашними обязанностями. Телегерой запросто разделывается с бандитами, раскрывает преступления и наказывает всех виновных - попугай очень хочет на него походить. И ему выпадает такой шанс, когда отцу начинают угрожать злодеи, которые хотят отобрать их фамильный бизнес - цирковую арену. Но мальчик не решается делать что-то в одиночку и отправляется на голливудские холмы, чтобы разыскать Эль Американо. Он свято верит, что тот сможет ему помочь и не хочет понимать, что это всего лишь актер и он может быть даже нехорошим. Маленький птенец попадает в разные забавные и опасные приключения, во время которых постигает силу дружбы. А по дороге обратно домой он понимает, что и сам может решать проблемы семьи, ведь нет сильнее супергероя, чем ты сам-Сэмпл IMDB КиноПоиск
Качество видео: WEB-DLRip
Контейнер: AVI
Видео кодек: XviD
Аудио кодек: AC3
Видео: Video: 720x400 (1.80:1), 25 fps, XviD build 50 ~1836 kbps avg, 0.26 bit/pixel
Аудио: Audio: 48 kHz, AC3 Dolby Digital, 2/0 (L,R) ch, ~384 kbps
Cубтитры: отсутствуют
Чтобы помочь Лизе Кудроу подготовиться к ее роли, режиссер Рикардо Арнаиз лично работал с ней над ее произношением на испанском.
Продюсеры фильма Майкл Д. Олмос и Эдвард Джеймс Олмос – это сын и отец.
Режиссер Рикардо Арнаиз признался, что изначально он намеревался снимать фильм в 2D, однако продюсер Эдвард Джеймс Олмос настоял на том, чтобы фильм вышел и в 3D-формате, чтобы повысить его шансы на успех в прокате.
Желал бы нам смотреть такие мультики в раннем детстве!!! somik
Формат : AVI
Формат/Информация : Audio Video Interleave
Размер файла : 1,37 Гбайт
Продолжительность : 1 ч. 27 м.
Общий поток : 2231 Кбит/сек
Название фильма : rustorrents.info
Программа кодирования : VirtualDubMod 1.5.10.3 | www.virtualdub-fr.org || (build 2550/release)
Видео
Идентификатор : 0
Формат : MPEG-4 Visual
Профиль формата : Advanced [email protected]
Параметр BVOP формата : 2
Параметр QPel формата : Нет
Параметр GMC формата : Без точки перехода
Параметр матрицы формата : Выборочная
Идентификатор кодека : XVID
Идентификатор кодека/Подсказка : XviD
Продолжительность : 1 ч. 27 м.
Битрейт : 1837 Кбит/сек
Ширина : 720 пикселей
Высота : 400 пикселей
Соотношение сторон : 16:9
Частота кадров : 25,000 кадров/сек
Цветовое пространство : YUV
Субдискретизация насыщенности : 4:2:0
Битовая глубина : 8 бит
Тип развёртки : Прогрессивная
Метод сжатия : С потерями
Бит/(Пиксели*Кадры) : 0.255
Размер потока : 1,13 Гбайт (82%)
Библиотека кодирования : XviD 1.2.1 (UTC 2008-12-04)
Аудио
Идентификатор : 1
Формат : AC-3
Формат/Информация : Audio Coding 3
Расширение режима : CM (complete main)
Параметр Endianness формата : Big
Идентификатор кодека : 2000
Продолжительность : 1 ч. 27 м.
Вид битрейта : Постоянный
Битрейт : 384 Кбит/сек
Каналы : 2 канала
Расположение каналов : Front: L R
Частота : 48,0 КГц
Частота кадров : 31,250 кадров/сек (1536 spf)
Метод сжатия : С потерями
Размер потока : 241 Мбайт (17%)
Выравнивание : Разделение по промежуткам
Продолжительность промежутка : 40 мс. (1,00 видеокадр)
Время предзагрузки промежутка : 500 мс.
Download / Скачать

Хотите скачать бесплатно? Зарегистрируйтесь на сайте (ссылка на регистрацию). Pirat.ca - самый быстрый торрент трекер в рунете!

Как скачивать  ·   Что такое торрент  ·   Рейтинг и ограничения

somik ®

Легенда

26961

Пост 11-Апр-2016 16:55 (спустя 2 минуты)

[Q] 

Скриншоты только для родителей! Качать только самым маленьким и самым любимым!!! Всем качать!!!

_________________
Всё когда-нибудь уже было... В интернете!
[Профиль]  [ЛС] 

Пост 12-Апр-2016 00:54 (спустя 7 часов)

Топик был перенесен из форума Мультфильмы (Трюм) в форум Зарубежные полнометражные мультфильмы
Андря
 

Массарадж

Морской Волк

Пост 21-Апр-2016 00:02 (спустя 9 дней)

[Q] 

Спасибо за раздачу!
Дети разбежались на 8 минуте, не увлёк мульт...

_________________
[Профиль]  [ЛС] 

Пост 13-Май-2016 21:02 (спустя 22 дня)

Топик был перенесен из форума Новинки (HD|DVD|BD| TV|SAT|PDTV| - Rips) в форум Зарубежные полнометражные мультфильмы
aleksey99
 
Показать сообщения:    
Ответить на тему

Текущее время: Сегодня 22:06

Часовой пояс: GMT + 4



Вы не можете начинать темы
Вы не можете отвечать на сообщения
Вы не можете редактировать свои сообщения
Вы не можете удалять свои сообщения
Вы не можете голосовать в опросах
Вы не можете прикреплять файлы к сообщениям
Вы не можете скачивать файлы

▼ Вниз