ML
     
  Уважаемый Гость!
Вы можете поддержать проект и зарегистрироваться у наших партнеров - онлайн-стратегия MyLands. При регистрации в игре Вы получите код, который сможете активировать после регистрации на pirat.ca и получить 1000 дублонов.

Ваш код:
e6008d9811a0b6a1393c3dc51ecd7bc35637bc21
 
     

Ореховый дом / Белки в деле / Get Squirrely (Росс Венокур / Ross Venokur) [2015 г., мультфильм, комедия, семейный, HDRip] MVO

Ответить на тему
 
Автор
Сообщение

Пост 21-Апр-2016 00:38

[Q] 

somik

Легенда

-Ореховый дом / Белки в деле / Get Squirrely-- Производство: США, Awesometown Entertainment, Vanguard Films
Режиссер: Росс Венокур / Ross Venokur
Жанр: мультфильм, комедия, семейный
Год выпуска: 2015 г.
Продолжительность: 01:26:12
Мировая премьера: 6 ноября 2015
Российская премьера: 24 марта 2016, «Наше Кино»
Перевод: Профессиональный (многоголосый, закадровый)
Роли озвучивали: Джейсон Джонс, Уилл Форте, Джон Легуизамо, Саманта Би, Виктория Джастис, Джон Клиз, Дэвид Берни, Джон Клилэнд, Джим Каммингс, Джереми Харрис-Описание: В лесу случилась беда! Пронырливые дельцы из города решили, что желуди послужат отличной основой для нового Чудо-крема. Они приехали в лес на железных машинах, собрали все желуди и оставили всех лесных жителей на зиму без еды!
Но отважная белка Фрэнки, знает, что нужно делать! Он собирает суперкоманду своих друзей — дикобраза Коди, летучую мышь Лиама, Змею Рэйтч, Ящерицу Эдси и Белку-летягу Лолу, вместе с ними он должен пробраться на фабрику где хранятся желуди и вернуть их!-Сэмпл IMDB КиноПоиск
Качество видео: HDRip
Контейнер: AVI
Видео кодек: XviD
Аудио кодек: AC3
Видео: Video: 720x384 (1.88:1), 47.952 fps, XviD build 50 ~1868 kbps avg, 0.14 bit/pixel
Аудио: Audio: 48 kHz, AC3 Dolby Digital, 2/0 (L,R) ch, ~384 kbps
Cубтитры: отсутствуют
Формат : AVI
Формат/Информация : Audio Video Interleave
Профиль формата : OpenDML
Размер файла : 1,36 Гбайт
Продолжительность : 1 ч. 26 м.
Общий поток : 2265 Кбит/сек
Название фильма : Get.Squirrely.2O15.P.HDRip.14OOMB.[pirat.ca]
Программа кодирования : Lavf54.59.107
Видео
Идентификатор : 0
Формат : MPEG-4 Visual
Профиль формата : Advanced [email protected]
Параметр BVOP формата : 2
Параметр QPel формата : Нет
Параметр GMC формата : Без точки перехода
Параметр матрицы формата : Выборочная
Идентификатор кодека : XVID
Идентификатор кодека/Подсказка : XviD
Продолжительность : 1 ч. 26 м.
Битрейт : 1863 Кбит/сек
Ширина : 720 пикселей
Высота : 384 пикселя
Соотношение сторон : 1,85:1
Частота кадров : 47,952 кадров/сек
Частота кадров в оригинале : 23,976 (24000/1001) кадра/сек
Цветовое пространство : YUV
Субдискретизация насыщенности : 4:2:0
Битовая глубина : 8 бит
Тип развёртки : Прогрессивная
Метод сжатия : С потерями
Бит/(Пиксели*Кадры) : 0.141
Размер потока : 1,12 Гбайт (82%)
Библиотека кодирования : XviD 1.2.1 (UTC 2008-12-04)
Аудио
Идентификатор : 1
Формат : AC-3
Формат/Информация : Audio Coding 3
Расширение режима : CM (complete main)
Параметр Endianness формата : Big
Идентификатор кодека : 2000
Продолжительность : 1 ч. 26 м.
Вид битрейта : Постоянный
Битрейт : 384 Кбит/сек
Каналы : 2 канала
Расположение каналов : Front: L R
Частота : 48,0 КГц
Частота кадров : 31,250 кадров/сек (1536 spf)
Битовая глубина : 16 бит
Метод сжатия : С потерями
Задержка видео : 4 с. 368 мс.
Размер потока : 237 Мбайт (17%)
Выравнивание : Разделение по промежуткам
Продолжительность промежутка : 32 мс. (1,53 видеокадра)
Download / Скачать

Хотите скачать бесплатно? Зарегистрируйтесь на сайте (ссылка на регистрацию). Pirat.ca - самый быстрый торрент трекер в рунете!

Как скачивать  ·   Что такое торрент  ·   Рейтинг и ограничения

somik ®

Легенда

26972

Пост 21-Апр-2016 00:42 (спустя 3 минуты)

[Q] 

Уважаемые Пираты и Пиратки! Мультик изгажен рекламой! Вступительную я отрезал (она бы насмерть перепугала детей), дальше думайте: качать или нет...

_________________
Всё когда-нибудь уже было... В интернете!
[Профиль]  [ЛС] 

Пост 21-Апр-2016 21:36 (спустя 20 часов)

Топик был перенесен из форума Мультфильмы (Трюм) в форум Зарубежные полнометражные мультфильмы
Андря
 
Показать сообщения:    
Ответить на тему

Текущее время: Сегодня 02:05

Часовой пояс: GMT + 4



Вы не можете начинать темы
Вы не можете отвечать на сообщения
Вы не можете редактировать свои сообщения
Вы не можете удалять свои сообщения
Вы не можете голосовать в опросах
Вы не можете прикреплять файлы к сообщениям
Вы не можете скачивать файлы

▼ Вниз