ML
     
  Уважаемый Гость!
Вы можете поддержать проект и зарегистрироваться у наших партнеров - онлайн-стратегия MyLands. При регистрации в игре Вы получите код, который сможете активировать после регистрации на pirat.ca и получить 1000 дублонов.

Ваш код:
ea554e7ed3eacceeae87a8b30a9de3f086c18a84
 
     

Принцесса и лягушка / The Princess and the Frog (Рон Клементс / Ron Clements...) [2009 г., мультфильм, мюзикл, фэнтези, мелодрама, семейный, HDRip] Dub

Ответить на тему
 
Автор
Сообщение

Пост 27-Апр-2016 06:31

[Q] 

somik

Легенда

-Принцесса и лягушка / The Princess and the Frog-- Производство: США, Walt Disney
Режиссер: Рон Клементс / Ron Clements...
Жанр: мультфильм, мюзикл, фэнтези, мелодрама, семейный
Год выпуска: 2009 г.
Продолжительность: 01:37:27
Мировая премьера: 25 ноября 2009
Российская премьера: 1 января 2010, «BVSPR Disney»
Перевод: Профессиональный (полное дублирование) [Невафильм 2009 ]
Роли озвучивали: Аника Нони Роуз (Tiana, озвучка), Бруно Кампос (Prince Naveen, озвучка), Кит Дэвид (Dr. Facilier, озвучка), Майкл-Леон Вули (Louis, озвучка), Дженнифер Коуди (Charlotte, озвучка), Джим Каммингс (Ray, озвучка), Питер Бартлетт (Lawrence, озвучка), Дженифер Льюис (Mama Odie, озвучка), Опра Уинфри (Eudora, озвучка), Терренс Ховард (James, озвучка), Джон Гудмен ('Big Daddy' La Bouff, озвучка), Элизабет М. Дэмпье (Young Tiana, озвучка)
Роли дублировали: Анна Бутурлина (Tiana), Стас Пьеха (Prince Naveen), Андрей Белявский (Dr. Facilier), Билли Новик (Louis), Асет Самраилова (Charlotte), Игорь Балалаев (Ray), Григорий Перель (Lawrence), Лариса Долина (Mama Odie), Ирина Лосева (Eudora), Владимир Майсурадзе (James), Максим Пинскер ('Big Daddy' La Bouff), Дарья Переяславец (Young Tiana)-Описание: Все мы знаем, что бывает, когда принц целует заколдованную в лягушку принцессу. Но что случится, если переодетая в принцессу официантка поцелует лягушку-принца?
Команда мультипликаторов под руководством Рона Клементса и Джона Маскера, создателей «Русалочки» и «Аладдина», а также обладатель премии «Оскар» композитор Рэнди Ньюман поведают самую прекрасную историю любви на свете… с участием лягушек, магии Вуду и поющего аллигатора.-Сэмпл IMDB КиноПоиск
Качество видео: HDRip
Контейнер: AVI
Видео кодек: XviD
Аудио кодек: MP3
Видео: 656x368 (1.78:1), 23.976 fps, XviD build 61 ~931 kbps avg, 0.16 bit/pixel
Аудио: 48 kHz, MPEG Layer 3, 2 ch, ~128.00 kbps avg
Cубтитры: отсутствуют
Принцесса Тиана стала левшой по просьбе озвучивавшей ее Аники Нони Роуз.
Аллигатор из «Принцессы и лягушки» ранее появлялся в одной из серий сериала «Чип и Дейл спешат на помощь» (1989-1992).
Ближе к концу мультфильма на карнавале можно разглядеть движущуюся платформу с изображением морского царя Нептуна, отца принцессы Ариэль из мультфильма «Русалочка» (1989) (чьи создатели как раз и работали над «Принцессой и лягушкой»).
Оскар, 2010 год
Номинации (3):
Лучшая песня — «Down in New Orleans»
Лучшая песня — «Almost There»
Лучший анимационный фильм
Золотой глобус, 2010 год
Номинации (1):
Лучший анимационный фильм
Старый добрый Дисней вернулся
Это настоящий мультшедевр нарисованный по старым технологиям (Белоснежка и 7 гномов, Питер Пен, Золушка и другие) яркие прорисованные персонажи и целая куча разных эмоций: добро и зло, любовь и ненависть, всё это приправлено юмором и шикарным музыкальным сопровождением.
Я всегда удивлялась фантазии Диснея. От фильма к фильму думаешь, что же они придумают такого необычного чтобы увлечь нас и приковать к экрану? Я даже представляю их размышления. Так-так птички были, рыбки были, мишки были. Ах да! лягушки! Необычно свежо, и всегда актуально (поцеловать лягушку и он оказывается принцом). Дальше дело техники, нарисовать компанию друзей с которыми будут путешествовать наши герои и вуаля. Получаем потрясающую сказку с интереснейшим сюжетом.
Что касается персонажей. Главная героиня обычная девушка Тиана, работающая, чтобы осуществить мечту своего отца, открытие ресторана, когда она уже почти у цели происходит,оно чудо, плавно перетекающее в яркое забавное путешествие. Ещё вы встретите там много забавных героев, которые вас очень удивят и конечно самое главное это он принц. Красавец мужчина. Полный сил и энергии по завоеванию девичьего сердца.
Я надеюсь, это не последняя работа Диснея в таком стиле. Я считаю, именно таким и должен быть мультик ярким, музыкальным, весёлым. Тут всё это есть. Даже с плюсом.
10 из 10
Формат : AVI
Формат/Информация : Audio Video Interleave
Размер файла : 745 Мбайт
Продолжительность : 1 ч. 37 м.
Общий поток : 1069 Кбит/сек
Название фильма : Princessa i lyagushka.[pirat.ca]
Программа кодирования : VirtualDubMod 1.5.10.3 | www.virtualdub-fr.org || (build 2550/release)
Видео
Идентификатор : 0
Формат : MPEG-4 Visual
Профиль формата : Advanced [email protected]
Параметр BVOP формата : 1
Параметр QPel формата : Нет
Параметр GMC формата : Без точки перехода
Параметр матрицы формата : Выборочная
Идентификатор кодека : XVID
Идентификатор кодека/Подсказка : XviD
Продолжительность : 1 ч. 37 м.
Битрейт : 932 Кбит/сек
Ширина : 656 пикселей
Высота : 368 пикселей
Соотношение сторон : 16:9
Частота кадров : 23,976 (23976/1000) кадра/сек
Цветовое пространство : YUV
Субдискретизация насыщенности : 4:2:0
Битовая глубина : 8 бит
Тип развёртки : Прогрессивная
Метод сжатия : С потерями
Бит/(Пиксели*Кадры) : 0.161
Размер потока : 649 Мбайт (87%)
Библиотека кодирования : XviD 61
Аудио
Идентификатор : 1
Формат : MPEG Audio
Версия формата : Version 1
Профиль формата : Layer 3
Идентификатор кодека : 55
Идентификатор кодека/Подсказка : MP3
Продолжительность : 1 ч. 37 м.
Вид битрейта : Постоянный
Битрейт : 128 Кбит/сек
Каналы : 2 канала
Частота : 48,0 КГц
Метод сжатия : С потерями
Размер потока : 89,2 Мбайт (12%)
Выравнивание : Соединение по промежуткам
Продолжительность промежутка : 42 мс. (1,00 видеокадр)
Время предзагрузки промежутка : 504 мс.
Библиотека кодирования : LAME3.98r
Настройки программы : -m s -V 4 -q 2 -lowpass 17 -b 128
Download / Скачать

Хотите скачать бесплатно? Зарегистрируйтесь на сайте (ссылка на регистрацию). Pirat.ca - самый быстрый торрент трекер в рунете!

Как скачивать  ·   Что такое торрент  ·   Рейтинг и ограничения

Пост 28-Апр-2016 01:33 (спустя 19 часов)

Топик был перенесен из форума Мультфильмы (Трюм) в форум Зарубежные полнометражные мультфильмы
Андря
 
Показать сообщения:    
Ответить на тему

Текущее время: Сегодня 12:12

Часовой пояс: GMT + 4



Вы не можете начинать темы
Вы не можете отвечать на сообщения
Вы не можете редактировать свои сообщения
Вы не можете удалять свои сообщения
Вы не можете голосовать в опросах
Вы не можете прикреплять файлы к сообщениям
Вы не можете скачивать файлы

▼ Вниз