ML
     
  Уважаемый Гость!
Вы можете поддержать проект и зарегистрироваться у наших партнеров - онлайн-стратегия MyLands. При регистрации в игре Вы получите код, который сможете активировать после регистрации на pirat.ca и получить 1000 дублонов.

Ваш код:
f612af22ea70acf5cbe90707ac5a076d215f8f7f
 
     

Паранорман, или Как приручить зомби / ParaNorman (Крис Батлер / Chris Butler...) [2012 г., мультфильм, ужасы, фэнтези, комедия, приключения, семейный, HDRip] Dub

Ответить на тему
 
Автор
Сообщение

Пост 03-Май-2016 02:29

[Q] 

somik

Легенда

-Паранорман, или Как приручить зомби / ParaNorman-- Производство: США, Laika Entertainment
Год выпуска: 2012 г.
Жанр: мультфильм, ужасы, фэнтези, комедия, приключения, семейный
Продолжительность: 01:32:15
Мировая премьера: 3 августа 2012
Российская премьера: 23 августа 2012, «UPI»
Дата выхода DVD: 13 декабря 2012, «Двадцатый Век Фокс СНГ»
Дата выхода Blu-Ray: 13 декабря 2012, «Двадцатый Век Фокс СНГ»
Перевод: Профессиональный (полное дублирование) [Пифагор 2012 ]
Режиссер: Крис Батлер / Chris Butler...-В ролях: Коди Смит-МакФи, Таккер Албрицци, Анна Кендрик, Кейси Аффлек, Кристофер Минц-Плассе, Лесли Манн, Джефф Гарлин, Илэйн Стритч, Бернард Хилл, Джоделль Ферланд
Роли дублировали: Даниил Трещов, Александр Комлев, Денис Беспалый, Алексей Борзунов, Вероника Саркисова, Алексей Колган-Описание: Норман, Паранорман. Единственная надежда полусонного городка в борьбе с полчищами нечисти. Его оружие — супер-мега-дар: умение общаться с призраками. Впрочем, мертвецы — не главная опасность, куда хуже — глупые взрослые с дробовиками наперевес.-
Качество видео: HDRip
Контейнер: AVI
Видео кодек: XviD
Аудио кодек: MP3
Видео: 688x288 (2.39:1), 23.976 fps, XviD build 65 ~991 kbps avg, 0.21 bit/pixel
Аудио: 48 kHz, MPEG Layer 3, 2 ch, ~128.00 kbps avg
Cубтитры: отсутствуют
За исключением судьи Хопкинса семь проклятых зомби не называются по имени, но у них есть имена: вышеупомянутый судья Хопкинс, Эбен Хадвик, Таддеус Блэктон, Лемуль Сполдинг, Амелия Уилкот, Гуди Темпер и Уил Лондон.
В течение последних нескольких недель до выхода фильма на экраны, компания Laika отправила 49 пакетов 49 людям (среди них Нил Гейман и Кевин Смит). В каждом пакете был деревянный ящик от Блайта Холлоу полный «могильной земли», которую получателям приходилось раскапывать, чтобы достать гроб. В гробу был один из семи проклятых зомби, в комплекте с брошюрой содержащей имя и справочную информацию.
Кинокомпания Laika использовала 3D-принтеры для создания всех выражений лиц необходимых для персонажей.
Фильм был снят с использованием камеры Canon 5D Mark II. Для создания 3D-эффектов камера была установлена на специальное устройство, которое позволяло после первого кадра смещать камеру в другую точку съемки, чтобы сделать второй.
Рингтон, установленный на телефоне Нормана — главная тема из фильма Джона Карпентера «Хэллоуин» 1978 года.
Паранорман, или Как приручить зомби» (англ. ParaNorman) — анимационный 3D-фильм с использованием кукольной мультипликации от студии Laika, известной своей работой над мультфильмами «Коралина в стране кошмаров» и «Труп невесты». Главные роли озвучивают Коди Смит-МакФи, Анна Кендрик, Лесли Манн, Кейси Аффлек.
Мультфильм распространяется компанией Focus Features, премьера состоялась 17 августа 2012 года в США и 23 августа 2012 в России.
Оскар, 2013 год
Номинации (1):
Лучший анимационный фильм
Британская академия, 2013 год
Номинации (1):
Лучший анимационный фильм
Сатурн, 2013 год
Номинации (1):
Лучший анимационный фильм
Страх и раскаяние.
Поначалу я много не ожидал от этой мультфильма: думал, что это будет типичная история о «не таком как все подростке», с ленивыми реверансами в сторону «хоррор» жанра и предсказуемой сюжетной структурой. Первые минут сорок только подтверждали эти опасения, однако чем слабее были ожидания в начале- тем сильнее мультфильм пробирает в самом конце.
Если переложить этот же сюжет на пленку с живыми актерами- получилась бы изумительно мрачная история, и мрачности ей придает не мистическая атрибутика, а по хорошему глубокая и гнетущая мораль. «Паранорман» гораздо глубже примитивного сюжета о конфронтации добра и зла, черного и белого, в первую очередь этот мультфильм раскрывает тему предрассудков и последующей за ней несправедливости, при чем как минимум на трех уровнях. Главная сюжетная интрига достаточно предсказуема, но все же когда она раскрывается в полной мере и все встает на свои места- пробирает до дрожи. Подобного эмоционального отклика я не получал очень давно, что на сцене судилища, что во время финального «принятия». Режиссура драматических сцен- отменная, акценты расставлены правильно, и даже кульминация оставляет после себя гнетущий привкус неоднозначности: вроде как, и закончилось все хорошо, а вроде- по безысходному печально.
Ошибочным будет утверждение о том, что это «детский» мультфильм рассчитанный на взрослых. Скорее наоборот- это детский мультфильм, который относится к детям по взрослому. Разумеется, некоторые реверансы могут показаться за гранью фола (особенно превосходно выдержанный твист в самом конце, на моменте «а давай сходим в кино»), но таковы реалии жизни, с которыми дети столкнутся. И лучше говорить с ними об этом так, по честному, как равный с равным, чем разжевывать инфантильные морали.
8 из 10
Формат : AVI
Формат/Информация : Audio Video Interleave
Размер файла : 745 Мбайт
Продолжительность : 1 ч. 32 м.
Общий поток : 1129 Кбит/сек
Название фильма : Paranorman.2012.D.HDRip.[pirat.ca]
Программа кодирования : VirtualDubMod 1.5.10.2 (build 2540/release)
Видео
Идентификатор : 0
Формат : MPEG-4 Visual
Профиль формата : Advanced [email protected]
Параметр BVOP формата : 1
Параметр QPel формата : Нет
Параметр GMC формата : Без точки перехода
Параметр матрицы формата : Выборочная
Идентификатор кодека : XVID
Идентификатор кодека/Подсказка : XviD
Продолжительность : 1 ч. 32 м.
Битрейт : 992 Кбит/сек
Ширина : 688 пикселей
Высота : 288 пикселей
Соотношение сторон : 2,40:1
Частота кадров : 23,976 (23976/1000) кадра/сек
Цветовое пространство : YUV
Субдискретизация насыщенности : 4:2:0
Битовая глубина : 8 бит
Тип развёртки : Прогрессивная
Метод сжатия : С потерями
Бит/(Пиксели*Кадры) : 0.209
Размер потока : 654 Мбайт (88%)
Библиотека кодирования : XviD 65
Аудио
Идентификатор : 1
Формат : MPEG Audio
Версия формата : Version 1
Профиль формата : Layer 3
Режим : Joint stereo
Расширение режима : MS Stereo
Идентификатор кодека : 55
Идентификатор кодека/Подсказка : MP3
Продолжительность : 1 ч. 32 м.
Вид битрейта : Постоянный
Битрейт : 128 Кбит/сек
Каналы : 2 канала
Частота : 48,0 КГц
Метод сжатия : С потерями
Размер потока : 84,4 Мбайт (11%)
Выравнивание : Соединение по промежуткам
Продолжительность промежутка : 42 мс. (1,00 видеокадр)
Время предзагрузки промежутка : 504 мс.
Библиотека кодирования : LAME3.99 (al
Download / Скачать

Хотите скачать бесплатно? Зарегистрируйтесь на сайте (ссылка на регистрацию). Pirat.ca - самый быстрый торрент трекер в рунете!

Как скачивать  ·   Что такое торрент  ·   Рейтинг и ограничения

Пост 03-Май-2016 08:48 (спустя 6 часов)

Топик был перенесен из форума Зарубежное Кино (Трюм) в форум Зарубежные полнометражные мультфильмы
aleksey99
 
Показать сообщения:    
Ответить на тему

Текущее время: Сегодня 00:26

Часовой пояс: GMT + 4



Вы не можете начинать темы
Вы не можете отвечать на сообщения
Вы не можете редактировать свои сообщения
Вы не можете удалять свои сообщения
Вы не можете голосовать в опросах
Вы не можете прикреплять файлы к сообщениям
Вы не можете скачивать файлы

▼ Вниз