ML
     
  Уважаемый Гость!
Вы можете поддержать проект и зарегистрироваться у наших партнеров - онлайн-стратегия MyLands. При регистрации в игре Вы получите код, который сможете активировать после регистрации на pirat.ca и получить 1000 дублонов.

Ваш код:
193c38d0130f05c24de871678ea3ac181461757d
 
     

Аномализа (18+) / Anomalisa (Дьюк Джонсон / Duke Johnson,...) [2015 г., мультфильм, драма, мелодрама, комедия, 18+, WEB-DLRip] Dub

Ответить на тему
 
Автор
Сообщение

Пост 04-Май-2016 23:01

[Q] 

somik

Легенда

-Аномализа (18+) / Anomalisa-- Производство: США, Paramount Animation, Starburns Industries
Режиссер: Дьюк Джонсон / Duke Johnson,...
Жанр: мультфильм, драма, мелодрама, комедия, 18+
Год выпуска: 2015 г.
Продолжительность: 01:30:50
Мировая премьера: 4 сентября 2015
Российская премьера: 23 мая 2016, «Новый Диск»
Перевод: Профессиональный (полное дублирование) [iTunes]
Роли озвучивали: Дэвид Тьюлис, Дженнифер Джейсон Ли, Том Нунен-Описание: Майкл Стоун, автор книг по обслуживанию клиентов, страдает от неспособности контактировать с людьми. Однажды, в ходе очередной рабочей поездки, он встречает незнакомца, который меняет его мировосприятие.-Сэмпл IMDB КиноПоиск
Качество видео: WEB-DLRip
Контейнер: AVI
Видео кодек: XviD
Аудио кодек: AC3
Видео: 720x304 (2.37:1), 23.976 fps, XviD build 50 ~1761 kbps avg, 0.34 bit/pixel
Аудио: 48 kHz, AC3 Dolby Digital, 3/2 (L,C,R,l,r) + LFE ch, ~384 kbps
Cубтитры: отсутствуют
Мультфильм был высоко оценён кинокритиками. На сайте Rotten Tomatoes фильм имеет рейтинг 91% на основе 148 рецензий со средней оценкой 8.3 из 10. Обозреватель сайта RogerEbert.com, Мэтт Сэйтц, оценил фильм на 3.5 звезды из трех, и известный критик из журнала Rolling Stone, Питер Треверс, поставил 4 звезды, отметив, что Чарли Кайфману удалось создать шедевр. На сайте Metacritic средний балл составил 87.
В прокате произошло очередное недоразумение — «Аномализу» у нас не покажут. Остаётся довольствоваться малым экраном. Такое вот условное счастье. Впрочем, когда речь идёт о фильме, где условность — главный драматургический инструмент, такой некомфортный просмотр даже на пользу.
Во-первых, «Аномализу» скорее нужно слушать, нежели смотреть. Изначально Чарли Кауфман написал пьесу для радио-спектакля, а уже потом было решено снимать кукольный мультфильм. Поэтому чем меньше отвлекающих факторов будет во время просмотра, тем лучше.
Во-вторых, фильмы Кауфмана желательно смотреть в одиночку ещё и потому, что он не только влезает в головы своих героев, но и устраивает дефрагментацию мозга у своего зрителя. А это процесс крайне сокровенный.
«Аномализа» — это смешное и горькое, мизантропское, но, в итоге, нежное кино. Как всегда у Кауфмана. Рассуждая о гранях обыденности самым необычным образом, Чарли приходит к довольно очевидному выводу: твоё несчастье — это лишь твой выбор. И никакие аномалии тут не помогут.
Когда тебе напоминает об этом Чарли Кауфман, главная голливудская аномалия, на душе становится немного легче. Почаще бы.
10 из 10
Формат : AVI
Формат/Информация : Audio Video Interleave
Размер файла : 1,37 Гбайт
Продолжительность : 1 ч. 30 м.
Общий поток : 2154 Кбит/сек
Название фильма : Anomalisa.2015.D.WEB-DLRip.[pirat.ca]
Программа кодирования : VirtualDubMod 1.5.10.2 (build 2540/release)
Видео
Идентификатор : 0
Формат : MPEG-4 Visual
Профиль формата : Advanced [email protected]
Параметр BVOP формата : 2
Параметр QPel формата : Нет
Параметр GMC формата : Без точки перехода
Параметр матрицы формата : Выборочная
Идентификатор кодека : XVID
Идентификатор кодека/Подсказка : XviD
Продолжительность : 1 ч. 30 м.
Битрейт : 1762 Кбит/сек
Ширина : 720 пикселей
Высота : 304 пикселя
Соотношение сторон : 2,35:1
Частота кадров : 23,976 (24000/1001) кадра/сек
Цветовое пространство : YUV
Субдискретизация насыщенности : 4:2:0
Битовая глубина : 8 бит
Тип развёртки : Прогрессивная
Метод сжатия : С потерями
Бит/(Пиксели*Кадры) : 0.336
Размер потока : 1,12 Гбайт (82%)
Библиотека кодирования : XviD 1.2.1 (UTC 2008-12-04)
Аудио
Идентификатор : 1
Формат : AC-3
Формат/Информация : Audio Coding 3
Расширение режима : CM (complete main)
Параметр Endianness формата : Big
Идентификатор кодека : 2000
Продолжительность : 1 ч. 30 м.
Вид битрейта : Постоянный
Битрейт : 384 Кбит/сек
Каналы : 6 каналов
Расположение каналов : Front: L C R, Side: L R, LFE
Частота : 48,0 КГц
Частота кадров : 31,250 кадров/сек (1536 spf)
Метод сжатия : С потерями
Размер потока : 249 Мбайт (18%)
Выравнивание : Разделение по промежуткам
Продолжительность промежутка : 42 мс. (1,00 видеокадр)
Время предзагрузки промежутка : 500 мс.
Download / Скачать

Хотите скачать бесплатно? Зарегистрируйтесь на сайте (ссылка на регистрацию). Pirat.ca - самый быстрый торрент трекер в рунете!

Как скачивать  ·   Что такое торрент  ·   Рейтинг и ограничения

Пост 05-Май-2016 02:04 (спустя 3 часа)

Топик был перенесен из форума Мультфильмы (Трюм) в форум Новинки (HD|DVD|BD| TV|SAT|PDTV| - Rips)
Андря
 

Роман1412

Морской Волк

Пост 06-Май-2016 17:10 (спустя 1 день 18 часов)

[Q] 

Скачат 115 раз и никто не отписался. Народ как фильм?
[Профиль]  [ЛС] 

sergein

Корсар

Пост 06-Май-2016 22:39 (спустя 5 часов)

[Q] 

вот вот главное самому не забыть отписаться по фильму
[Профиль]  [ЛС] 

shachoff

Шкипер

Пост 07-Май-2016 17:58 (спустя 19 часов)

[Q] 

По мне полное гуано (ну или на "любителя"). Не рекомендую.
[Профиль]  [ЛС] 

Borka82

Морской Волк

Пост 08-Май-2016 15:10 (спустя 21 час)

[Q] 

Спасибо!!! На любителя
[Профиль]  [ЛС] 

jbin2008

Шкипер

Пост 08-Май-2016 20:49 (спустя 5 часов)

[Q] 

Почему так мало скринов??? be
[Профиль]  [ЛС] 

ketzer

Морской Волк

Пост 10-Май-2016 05:37 (спустя 1 день 8 часов)

[Q] 

Ой, не зашло. Кауфман - гений без бэ, но его (и конкретно - этот фильм) надо смотреть на необитаемом острове, соскучившись по таким мелочам, как перебранки соседей и случайно прилипшая к подошве жвачка.
Полистал - кукольный секс вообще фубля, впрочем, наверное, нужно брать на вооружение совет из рецензии и не смотреть это, а только слушать. И тогда уж не в дубляже.
[Профиль]  [ЛС] 

Mollchun

Корсар

926

Пост 10-Май-2016 12:56 (спустя 7 часов)

[Q] 

Что то очень муторно, хотя в ознакомительных целях...Только именно в ознакомительных...

_________________
[Профиль]  [ЛС] 

Gothaka

Лоцман

Пост 12-Май-2016 22:03 (спустя 2 дня 9 часов)

[Q] 

Если нравятся фильмы "Быть Джоном Малковичем" и "Вечное сияние чистого разума" то и этот понравится. А так скучно, но под конец становится все на свои места. Так что надо потерпеть.
[Профиль]  [ЛС] 
Показать сообщения:    
Ответить на тему

Текущее время: Сегодня 18:07

Часовой пояс: GMT + 4



Вы не можете начинать темы
Вы не можете отвечать на сообщения
Вы не можете редактировать свои сообщения
Вы не можете удалять свои сообщения
Вы не можете голосовать в опросах
Вы не можете прикреплять файлы к сообщениям
Вы не можете скачивать файлы

▼ Вниз