ML
     
  Уважаемый Гость!
Вы можете поддержать проект и зарегистрироваться у наших партнеров - онлайн-стратегия MyLands. При регистрации в игре Вы получите код, который сможете активировать после регистрации на pirat.ca и получить 1000 дублонов.

Ваш код:
e93cd9e43017f251127f220889864c05934e61c6
 
     

Гарри в стране фей / Faeries (Гари Херст / Gary Hurst) [1999 г., мультфильм, фэнтези, приключения, семейный, DVDRip] MVO

Ответить на тему
 
Автор
Сообщение

Пост 11-Май-2016 19:48

[Q] 

somik

Легенда

-Гарри в стране фей / Faeries-- Производство: Великобритания, Cartwn Cymru, Hit Entertainment, United Productions
Режиссер: Гари Херст / Gary Hurst
Жанр: мультфильм, фэнтези, приключения, семейный
Год выпуска: 1999 г.
Продолжительность: 01:14:55
Российская премьера: 27 мая 2004, «Союз-Видео»
Перевод: Профессиональный (многоголосый, закадровый)
Роли озвучивали: Кейт Уинслет, Джереми Айронс, Дюгрей Скотт, Майкл Баррелл, Шарлотта Коулман, Элизабет Хири, Джейн Хоррокс, Патрик Марлоу, Джесика Мартин, Карли О’Нилл-Описание: Маленький Гарри оказался в деревне, пока его родители занимались переездом в городе. Неподалёку от дома находился лес, где мальчик частенько любил поиграть вместе со своей сестрой.
Но однажды Гарри не вернулся из леса — чудесным образом он попал в волшебную страну. Там он познакомился с ее обитателями — прекрасными феями и их Принцем.
Чтобы вернуться домой, Гарри должен помочь своим новым друзьям победить злого колдуна, мечтающего захватить власть в Стране Фей. Но колдун хитер и коварен, и чтобы одолеть его, Гарри предстоит пережить множество захватывающих и опасных приключений и преодолеть немало трудностей…-Сэмпл IMDB КиноПоиск
Качество видео: DVDRip
Контейнер: AVI
Видео кодек: DivX
Аудио кодек: MP3
Видео: 608x448 (1.36:1), 25 fps, DivX Codec 5.05 ~1174 kbps avg, 0.17 bit/pixel
Аудио: 44.100 kHz, MPEG Layer 3, 2 ch, ~127.91 kbps avg
Cубтитры: отсутствуют
Гарри? Ты ли это?
Нашим локализаторам следует отрезать ногти по самые локти. Я помню, как этот мульт пытались выдать за «Долину папоротников-3». На самом деле это мультик про девочку Нелли и её брата по имени… Джордж. Из имени Джордж имя Гарри не получается при любом раскладе. Но есть маленькое обстоятельство — Джордж темноволос и в очках, а помножив это на то, что мульт озвучивали в период разгара поттерианы, то… ну, вы поняли.
Итак, девочка Нелли вместе со своим непослушным братом Джорджем приезжает к родственникам в деревню (здравствуй, малоизвестный русскоязычной публике, но оказавшей влияние на англоязычную детскую фэнтези роман Алана Гарнера «Волшебный камень Бризингамена»), где происходят чууудеееса. То бишь в лесу спокойно живут и никого не трогают фэйри. Только так ненавязчиво обозначают вход в свой мир светящимся кольцом из грибов (беспалевно). Разумеется, ничего умнее, чем оказаться в фейской рабстве, Джордж не предпринимает.
Нелли ищет союзников, чтобы ей объяснили, что такое эльфы и с чем их едят тролли, как обнаруживает, что на их ферме всё тоже не так уж и банально, например, у неё в шкафу живёт прикольный гоблин Брум (и вам здравствуйте, уважаемая Холли Блэк, вы по прежнему утверждаете, что в «Спайдервике» ничего не заимствовали? Да? Да?). Путём небольшой интриги и мелкого шантажа, брата Нелли возвращает.
И это только половина истории — вот, что самое ценное в этом мульте!
Есть ещё война со злыми фейри. И третья часть — длинная интрига, связанная с похищением младенцев и воровством артефактов.
Мульт очень приятен. Спокойный, ритмичный. И, как уже сказала, аж с тремя сюжетными поворотами, из-за чего появляется чувство, что смотришь мини-сериал. Персонажи в меру идиотичны ("Давайте украдём у короля добрых фейри артефакт, а то король злых фейри похитил младенчика! Ведь младенчик дороже артефакта. *спустя два часа* Ой, а без артефакта все повымрут по воле злобного короля? Нет, ну какая же он скотина, что не сказал нам это до того, как мы пошли воровать»), что и характерно в целом для большинства детского фэнтези, где герои сперва делают какую-то шляпу, а потом вплоть до финала разгребают последствия.
Со «Спайдервиком» вы найдёте порядка двух десятков параллелей. В целом, очень качественное фэнтези, без перегибов, без стёба. Советую не только детям, но и их фэндомным родителям.
9 из 10
Формат : AVI
Формат/Информация : Audio Video Interleave
Размер файла : 705 Мбайт
Продолжительность : 1 ч. 14 м.
Режим общего битрейта : Переменный
Общий поток : 1315 Кбит/сек
Название фильма : Garri.v.Strane.Fey.[pirat.ca]
Программа кодирования : VirtualDubMod 1.5.10.1 (build 2366/release)
Видео
Идентификатор : 0
Формат : MPEG-4 Visual
Параметр BVOP формата : 1
Параметр QPel формата : Нет
Параметр GMC формата : Без точки перехода
Параметр матрицы формата : Default (H.263)
Режим смешивания : Сжатый битовый поток
Идентификатор кодека : DX50
Идентификатор кодека/Подсказка : DivX 5
Продолжительность : 1 ч. 14 м.
Битрейт : 1175 Кбит/сек
Ширина : 608 пикселей
Высота : 448 пикселей
Соотношение сторон : 4:3
Частота кадров : 25,000 кадров/сек
Цветовое пространство : YUV
Субдискретизация насыщенности : 4:2:0
Битовая глубина : 8 бит
Тип развёртки : Прогрессивная
Метод сжатия : С потерями
Бит/(Пиксели*Кадры) : 0.173
Размер потока : 630 Мбайт (89%)
Библиотека кодирования : DivX 5.0.5 (UTC 2003-04-24)
Аудио
Идентификатор : 1
Формат : MPEG Audio
Версия формата : Version 1
Профиль формата : Layer 3
Режим : Joint stereo
Расширение режима : MS Stereo
Идентификатор кодека : 55
Идентификатор кодека/Подсказка : MP3
Продолжительность : 1 ч. 14 м.
Вид битрейта : Переменный
Битрейт : 128 Кбит/сек
Каналы : 2 канала
Частота : 44,1 КГц
Метод сжатия : С потерями
Задержка видео : 52 мс.
Размер потока : 68,5 Мбайт (10%)
Выравнивание : Разделение по промежуткам
Продолжительность промежутка : 26 мс. (0,65 видеокадр)
Время предзагрузки промежутка : 600 мс.
Библиотека кодирования : LAME3.90.
Настройки программы : -m j -V 4 -q 2 -lowpass 17.6 --abr 128
Download / Скачать

Хотите скачать бесплатно? Зарегистрируйтесь на сайте (ссылка на регистрацию). Pirat.ca - самый быстрый торрент трекер в рунете!

Как скачивать  ·   Что такое торрент  ·   Рейтинг и ограничения

Пост 14-Май-2016 10:38 (спустя 2 дня 14 часов)

Топик был перенесен из форума Мультфильмы (Трюм) в форум Зарубежные полнометражные мультфильмы
Андря
 
Показать сообщения:    
Ответить на тему

Текущее время: Сегодня 04:27

Часовой пояс: GMT + 4



Вы не можете начинать темы
Вы не можете отвечать на сообщения
Вы не можете редактировать свои сообщения
Вы не можете удалять свои сообщения
Вы не можете голосовать в опросах
Вы не можете прикреплять файлы к сообщениям
Вы не можете скачивать файлы

▼ Вниз