ML
     
  Уважаемый Гость!
Вы можете поддержать проект и зарегистрироваться у наших партнеров - онлайн-стратегия MyLands. При регистрации в игре Вы получите код, который сможете активировать после регистрации на pirat.ca и получить 1000 дублонов.

Ваш код:
a978488e62322cd72e113ab723b8a7fdc10eb9b9
 
     

Железяки / Yak (Прапас Чолсаранонт / Prapas Cholsaranont) [2012 г., мультфильм, фантастика, фэнтези, комедия, семейный, WEB-DLRip-AVC] Dub

Ответить на тему
 
Автор
Сообщение

Пост 16-Май-2016 00:45

[Q] 

somik

Легенда

-Железяки / Yak-- Производство: Тайланд, Work Point Entertainment
Режиссер: Прапас Чолсаранонт / Prapas Cholsaranont
Жанр: мультфильм, фантастика, фэнтези, комедия, семейный
Год выпуска: 2012 г.
Продолжительность: 01:33:08
Мировая премьера: 4 октября 2012
Российская премьера: 27 июня 2013, «West»
Перевод: Профессиональный (полное дублирование) [Баритон 2012]
Роли озвучивали: Антон Савенков, Александр Ревва, Владимир Рыбальченко, Михаил Галустян-Описание: Вернувшись к жизни после долгих лет сна, роботы Здоровяк и Микро с удивлением обнаруживают, что их тела прочно соединены крепкой цепью. Увы, время стерло им память, и теперь они вынуждены вдвоем отправиться в трудное и опасное путешествие, чтобы вновь обрести свободу. Долгие странствия, наполненные удивительными приключениями, трудными испытаниями и великими подвигами, превращают наших героев в настоящих друзей. Но их дружбе предстоит пройти еще одно, самое главное испытание…-Сэмпл IMDB КиноПоиск
Качество видео: WEB-DLRip-AVC
Контейнер: MKV
Видео кодек: MPEG4 AVC
Аудио кодек: AC3
Видео: AVC, 1280x688, 2500 Кбит/сек, 25.000 кадр/с
Аудио: AC3, 6 ch, 256 kbps
Cубтитры: отсутствуют
Старая сказка
Я представляю себе Тайланд: грязная деревушка, босоногие дети шумно резвятся в пыли, гомон стихает только когда становится совсем жарко, и дети разваливаются в полудреме в тени кустарников, слушая сказки местного старика. Набор его историй невелик, старик часто повторяется в своих рассказах, он пересказывает то, что ему самому много десятков лет назад рассказывал его дед, его деду его прапрадед; он пересказывает то, что неоднократно видел в каком-нибудь Пхукетском кинотеатре, видел в театральных постановках. Ему не наскучивают эти истории, потому что они — часть его религии, в них скрывается божественная мудрость, выхолощенная поколениями.
К чему я все это говорю? «Железяки» — еще одна такая история, это очень вольный пересказ Рамаяны (тайской ее версии) и, наверное, вообще не рассчитан на не знакомого с исходником зрителя. Если же Вы в курсе, что там как происходило, то и фильм подкинет Вам пищу для размышлений.
ормат : Matroska
Версия формата : Version 4 / Version 2
Размер файла : 1,79 Гбайт
Продолжительность : 1 ч. 33 м.
Общий поток : 2751 Кбит/сек
Дата кодирования : UTC 2014-06-25 18:24:33
Программа кодирования : mkvmerge v6.7.0 ('Back to the Ground') 64bit built on Jan 8 2014 15:10:52
Библиотека кодирования : libebml v1.3.0 + libmatroska v1.4.1
Видео
Идентификатор : 1
Формат : AVC
Формат/Информация : Advanced Video Codec
Профиль формата : [email protected]
Параметр CABAC формата : Да
Параметр ReFrames формата : 3 кадра
Идентификатор кодека : V_MPEG4/ISO/AVC
Продолжительность : 1 ч. 33 м.
Битрейт : 2500 Кбит/сек
Ширина : 1280 пикселей
Высота : 688 пикселей
Соотношение сторон : 1,85:1
Режим частоты кадров : Постоянный
Частота кадров : 25,000 кадров/сек
Цветовое пространство : YUV
Субдискретизация насыщенности : 4:2:0
Битовая глубина : 8 бит
Тип развёртки : Прогрессивная
Бит/(Пиксели*Кадры) : 0.114
Размер потока : 1,59 Гбайт (89%)
Библиотека кодирования : x264 core 133
Настройки программы : cabac=1 / ref=4 / deblock=1:0:0 / analyse=0x3:0x133 / me=umh / subme=9 / psy=1 / psy_rd=1.00:0.00 / mixed_ref=1 / me_range=24 / chroma_me=1 / trellis=2 / 8x8dct=1 / cqm=0 / deadzone=21,11 / fast_pskip=1 / chroma_qp_offset=-2 / threads=2 / lookahead_threads=1 / sliced_threads=0 / nr=0 / decimate=1 / interlaced=0 / bluray_compat=0 / constrained_intra=0 / bframes=9 / b_pyramid=1 / b_adapt=2 / b_bias=0 / direct=3 / weightb=1 / open_gop=0 / weightp=2 / keyint=100 / keyint_min=10 / scenecut=40 / intra_refresh=0 / rc_lookahead=100 / rc=2pass / mbtree=1 / bitrate=2500 / ratetol=1.0 / qcomp=0.60 / qpmin=0 / qpmax=69 / qpstep=4 / cplxblur=20.0 / qblur=0.5 / vbv_maxrate=3250 / vbv_bufsize=3750 / nal_hrd=none / ip_ratio=1.40 / aq=1:1.00
Язык : Russian
Default : Да
Forced : Нет
Аудио
Идентификатор : 2
Формат : AC-3
Формат/Информация : Audio Coding 3
Расширение режима : CM (complete main)
Параметр Endianness формата : Big
Идентификатор кодека : A_AC3
Продолжительность : 1 ч. 33 м.
Вид битрейта : Постоянный
Битрейт : 256 Кбит/сек
Каналы : 6 каналов
Расположение каналов : Front: L C R, Side: L R, LFE
Частота : 48,0 КГц
Частота кадров : 31,250 кадров/сек (1536 spf)
Метод сжатия : С потерями
Размер потока : 171 Мбайт (9%)
Default : Да
Forced : Нет
Download / Скачать

Хотите скачать бесплатно? Зарегистрируйтесь на сайте (ссылка на регистрацию). Pirat.ca - самый быстрый торрент трекер в рунете!

Как скачивать  ·   Что такое торрент  ·   Рейтинг и ограничения

nexoo

Корсар

Пост 16-Май-2016 11:10 (спустя 10 часов)

[Q] 

Спасибо за раздачу! Интересная графика и идея сама нравится.
[Профиль]  [ЛС] 

Пост 17-Май-2016 02:39 (спустя 15 часов)

Топик был перенесен из форума Мультфильмы (Трюм) в форум Зарубежные полнометражные мультфильмы
Андря
 
Показать сообщения:    
Ответить на тему

Текущее время: Сегодня 22:05

Часовой пояс: GMT + 4



Вы не можете начинать темы
Вы не можете отвечать на сообщения
Вы не можете редактировать свои сообщения
Вы не можете удалять свои сообщения
Вы не можете голосовать в опросах
Вы не можете прикреплять файлы к сообщениям
Вы не можете скачивать файлы

▼ Вниз