ML
     
  Уважаемый Гость!
Вы можете поддержать проект и зарегистрироваться у наших партнеров - онлайн-стратегия MyLands. При регистрации в игре Вы получите код, который сможете активировать после регистрации на pirat.ca и получить 1000 дублонов.

Ваш код:
8dcb839cf1b47e56d6dc42d17f26b3e4822e9aee
 
     

Элизиум / Elysium (Джо Вонг Квон / Jae-woong Kwon) [2002 г., мультфильм, фантастика, фэнтези, боевик, DVDRip] Dub

Ответить на тему
 
Автор
Сообщение

Пост 21-Май-2016 05:01

[Q] 

somik

Легенда

-Элизиум / Elysium-- Производство: Корея Южная, Big Film Entertainment
Режиссер: Джо Вонг Квон / Jae-woong Kwon
Жанр: мультфильм, фантастика, фэнтези, боевик
Год выпуска: 2002 г.
Продолжительность: 01:25:50
Мировая премьера: 24 февраля 2003
Российская премьера: 28 ноября 2002, «RUSCICO»
Перевод: Профессиональный (полное дублирование) [RUSCICO]
Роли озвучивали: Александра Бойд, Ли Черри, Кэм Кларк, Лара Коуди, Джастин Кауден, Пэт Фрэли
Роли дублировали: Михаил Тихонов, Александр Груздев, Дмитрий Филимонов, Сергей Балабанов, Владимир Турчинский-Описание: Вдохновляюще-героический анимационный фильм, в отличие от японской «Последней Фантазии», корейский «Элизиум» не ставит перед собой задачи заменить реальных актёров.
Закономерное и обоснованное представление всех основных человеческих психотипов в качестве героев картины позволяет каждому зрителю выбрать персонажа, позицию и характер которого он разделяет. А общее фантастическое течение сюжета, с межпланетной войной и боевыми роботами-биомеханоидами, трогательной молодёжной любовью, гонками на турбоциклах «джай-алай» и осознанием непростой Правды, мальчишкой-драчуном и присматривающим за ним уморительным роботом-нянькой, делает из него ненудный, по-честному и увлекательно, воспитывающий фильм.
Противостояние Добра и Зла, такова извечная дилемма, вокруг которой строятся все истории, будь то древние сказки или футуристическая фантастика.-Сэмпл IMDB КиноПоиск
Качество видео: DVDRip
Контейнер: AVI
Видео кодек: XviD
Аудио кодек: MP3
Видео: 608x352 (1.73:1), 25 fps, XviD Final 1.1 (build 41) ~1004 kbps avg, 0.19 bit/pixel
Аудио: 48 kHz, MPEG Layer 3, 2 ch, ~128.00 kbps avg
Cубтитры: отсутствуют
Я посмотрел этот фильм, когда мне было 12 лет. Я от него фанател. Для меня это был самый потрясающий мультик. Решил пересмотреть в 16 лет и выключил его в самом начале.
Пришел к выводу: «Фильм рассчитан на детей». Не стоит его сильно ругать, человеку которому 20 лет фильм не понравится точно, а вот позабавить детей — фильм подойдет как никогда.
Для детей оценка 9 из 10.
Формат : AVI
Формат/Информация : Audio Video Interleave
Размер файла : 700 Мбайт
Продолжительность : 1 ч. 25 м.
Общий поток : 1140 Кбит/сек
Название фильма : Elysium.2002.DVDRip.[pirat.ca]
Программа кодирования : VirtualDubMod 1.5.4.1 (build 2178/release)
Видео
Идентификатор : 0
Формат : MPEG-4 Visual
Профиль формата : Advanced [email protected]
Параметр BVOP формата : 1
Параметр QPel формата : Нет
Параметр GMC формата : Без точки перехода
Параметр матрицы формата : Выборочная
Идентификатор кодека : XVID
Идентификатор кодека/Подсказка : XviD
Продолжительность : 1 ч. 25 м.
Битрейт : 1005 Кбит/сек
Ширина : 608 пикселей
Высота : 352 пикселя
Соотношение сторон : 1,727
Частота кадров : 25,000 кадров/сек
Цветовое пространство : YUV
Субдискретизация насыщенности : 4:2:0
Битовая глубина : 8 бит
Тип развёртки : Прогрессивная
Метод сжатия : С потерями
Бит/(Пиксели*Кадры) : 0.188
Размер потока : 617 Мбайт (88%)
Библиотека кодирования : XviD 1.1.0 (UTC 2005-11-22)
Аудио
Идентификатор : 1
Формат : MPEG Audio
Версия формата : Version 1
Профиль формата : Layer 3
Режим : Joint stereo
Расширение режима : MS Stereo
Идентификатор кодека : 55
Идентификатор кодека/Подсказка : MP3
Продолжительность : 1 ч. 25 м.
Вид битрейта : Постоянный
Битрейт : 128 Кбит/сек
Каналы : 2 канала
Частота : 48,0 КГц
Метод сжатия : С потерями
Размер потока : 78,6 Мбайт (11%)
Выравнивание : Соединение по промежуткам
Продолжительность промежутка : 80 мс. (2,00 видеокадра)
Время предзагрузки промежутка : 504 мс.
Библиотека кодирования : LAME3.97b
Настройки программы : -m j -V 4 -q 2 -lowpass 17 -b 128
Download / Скачать

Хотите скачать бесплатно? Зарегистрируйтесь на сайте (ссылка на регистрацию). Pirat.ca - самый быстрый торрент трекер в рунете!

Как скачивать  ·   Что такое торрент  ·   Рейтинг и ограничения

Пост 21-Май-2016 23:54 (спустя 18 часов)

Топик был перенесен из форума Мультфильмы (Трюм) в форум Зарубежные полнометражные мультфильмы
Андря
 
Показать сообщения:    
Ответить на тему

Текущее время: Сегодня 04:17

Часовой пояс: GMT + 4



Вы не можете начинать темы
Вы не можете отвечать на сообщения
Вы не можете редактировать свои сообщения
Вы не можете удалять свои сообщения
Вы не можете голосовать в опросах
Вы не можете прикреплять файлы к сообщениям
Вы не можете скачивать файлы

▼ Вниз